Скачать через торрент музыку День мертвецов Day Of The Dead бесплатно без регистрации torrent

Если у вас наблюдаются проблемы со скриншотами, переходом по ссылками, скачиванием торрентов - проблемы в блокировщике рекламы AdBlock. #хорошегоДня!


Статистика раздачи
Размер:  380 MB   |    Зарегистрирован:  6 лет 7 месяцев   |    .torrent скачан:  51 раз   |   
Раздают:  1  
   
Загрузка...
 
Автор Сообщение

Комедиант

avatar Комедиант


День мертвецов / Day Of The Dead (Limited Edition)
Жанр: Score / Soundtrack / Electronic / Ambient
Год выпуска диска: 2002
Label: Numenorean Music
Catalog#: NMCD 001
Производитель диска: US
Аудио кодек: FLAC
Тип рипа: tracks+.cue
Битрейт аудио: lossless
Продолжительность: 01:11:34
Композитор: John Harrison
Сканы: Есть
Источник: forums.ffshrine.org
Трэклист:
01 - The Dead Suite (19:39)
02 - Breakdown (3:50)
03 - Escape Invasion (3:56)
04 - The Dead Walk (4:51)
05 - If Tomorrow Comes (03:37)
06 - The World Inside Your Eyes (2:29)

Bonus music and effects track:

07 - Deadly Beginnings (07:25)
08 - Diner of the Living Dead (1:39)
09 - Dead Calm (1:53)
10 - Bub's 9th (0:36)
11 - Dead End (21:39)
 
Exact Audio Copy V0.99 prebeta 4 from 23. January 2008

EAC extraction logfile from 14. June 2009, 13:53

John Harrison / Day of the Dead (Limited Edition)

Used drive : PIONEER DVD-RW DVR-115D Adapter: 5 ID: 0

Read mode : SecureUtilize accurate stream : YesDefeat audio cache : YesMake use of C2 pointers : No

Read offset correction : 48Overread into Lead-In and Lead-Out : NoFill up missing offset samples with silence : YesDelete leading and trailing silent blocks : NoNull samples used in CRC calculations : YesUsed interface : Installed external ASPI interfaceGap handling : Appended to previous track

Used output format : User Defined EncoderSelected bitrate : 768 kBit/sQuality : HighAdd ID3 tag : NoCommand line compressor : C:\Program Files\Exact Audio Copy\FLAC\FLAC.EXEAdditional command line options : -8 -V -T "ARTIST=%a" -T "TITLE=%t" -T "ALBUM=%g" -T "DATE=%y" -T "TRACKNUMBER=%n" -T "GENRE=%m" -T "COMMENT=%e" %s -o %d

TOC of the extracted CD

Track | Start | Length | Start sector | End sector --------------------------------------------------------- 1 | 0:00.00 | 19:41.37 | 0 | 88611 2 | 19:41.37 | 3:52.21 | 88612 | 106032 3 | 23:33.58 | 3:58.17 | 106033 | 123899 4 | 27:32.00 | 4:53.61 | 123900 | 145935 5 | 32:25.61 | 3:39.07 | 145936 | 162367 6 | 36:04.68 | 3:31.35 | 162368 | 178227 7 | 39:36.28 | 7:27.09 | 178228 | 211761 8 | 47:03.37 | 1:41.56 | 211762 | 219392 9 | 48:45.18 | 1:55.09 | 219393 | 228026 10 | 50:40.27 | 0:36.06 | 228027 | 230732 11 | 51:16.33 | 21:39.35 | 230733 | 328192

Track 1

Filename z:\media\DISK2SATA320GB\X\Day Of The Dead (1985) by John Harrison -FLAC-\01 - The Dead Suite.wav

Pre-gap length 0:00:02.00

Peak level 96.8 % Track quality 99.9 % Test CRC 503ACE73 Copy CRC 503ACE73 Accurately ripped (confidence 2) [2A8E4DB1] Copy OK

Track 2

Filename z:\media\DISK2SATA320GB\X\Day Of The Dead (1985) by John Harrison -FLAC-\02 - Breakdown.wav

Pre-gap length 0:00:01.89

Peak level 98.5 % Track quality 100.0 % Test CRC 256E3969 Copy CRC 256E3969 Accurately ripped (confidence 2) [3DDF5985] Copy OK

Track 3

Filename z:\media\DISK2SATA320GB\X\Day Of The Dead (1985) by John Harrison -FLAC-\03 - Escape Invasion.wav

Pre-gap length 0:00:01.89

Peak level 97.8 % Track quality 100.0 % Test CRC 3EAAFDCB Copy CRC 3EAAFDCB Accurately ripped (confidence 2) [C73F0C87] Copy OK

Track 4

Filename z:\media\DISK2SATA320GB\X\Day Of The Dead (1985) by John Harrison -FLAC-\04 - The Dead Walk.wav

Pre-gap length 0:00:01.89

Peak level 99.8 % Track quality 100.0 % Test CRC 24CD8C9A Copy CRC 24CD8C9A Accurately ripped (confidence 2) [8D78AE97] Copy OK

Track 5

Filename z:\media\DISK2SATA320GB\X\Day Of The Dead (1985) by John Harrison -FLAC-\05 - If Tomorrow Comes.wav

Pre-gap length 0:00:01.89

Peak level 99.7 % Track quality 100.0 % Test CRC 901FF1BB Copy CRC 901FF1BB Accurately ripped (confidence 2) [A7FAC2FF] Copy OK

Track 6

Filename z:\media\DISK2SATA320GB\X\Day Of The Dead (1985) by John Harrison -FLAC-\06 - The World Inside Your Eyes.wav

Pre-gap length 0:00:01.89

Peak level 97.1 % Track quality 100.0 % Test CRC B096CAB0 Copy CRC B096CAB0 Accurately ripped (confidence 2) [78A89C8A] Copy OK

Track 7

Filename z:\media\DISK2SATA320GB\X\Day Of The Dead (1985) by John Harrison -FLAC-\07 - Deadly Beginnings.wav

Pre-gap length 0:00:01.89

Peak level 95.3 % Track quality 100.0 % Test CRC EEE0599B Copy CRC EEE0599B Accurately ripped (confidence 2) [0B8CEB5A] Copy OK

Track 8

Filename z:\media\DISK2SATA320GB\X\Day Of The Dead (1985) by John Harrison -FLAC-\08 - Diner of the Living Dead.wav

Pre-gap length 0:00:01.89

Peak level 88.6 % Track quality 100.0 % Test CRC 9C03E7AE Copy CRC 9C03E7AE Accurately ripped (confidence 2) [0A4C7DEB] Copy OK

Track 9

Filename z:\media\DISK2SATA320GB\X\Day Of The Dead (1985) by John Harrison -FLAC-\09 - Dead Calm.wav

Pre-gap length 0:00:01.89

Peak level 93.5 % Track quality 100.0 % Test CRC DC5BCECD Copy CRC DC5BCECD Accurately ripped (confidence 2) [C261A130] Copy OK

Track 10

Filename z:\media\DISK2SATA320GB\X\Day Of The Dead (1985) by John Harrison -FLAC-\10 - Bub's 9th.wav

Pre-gap length 0:00:01.89

Peak level 60.5 % Track quality 100.0 % Test CRC EB2DA89D Copy CRC EB2DA89D Accurately ripped (confidence 2) [45B82BEF] Copy OK

Track 11

Filename z:\media\DISK2SATA320GB\X\Day Of The Dead (1985) by John Harrison -FLAC-\11 - Dead End.wav

Peak level 95.8 % Track quality 100.0 % Test CRC 35DDBF8A Copy CRC 35DDBF8A Track not present in AccurateRip database Copy OK

0 track(s) accurately ripped 1 track(s) not present in the AccurateRip database

Some tracks could not be verified as accurate

No errors occurred

End of status report
 
REM GENRE SoundtrackREM DATE 1985REM DISCID A211170BREM COMMENT "ExactAudioCopy v0.99pb4"FILE "01 - The Dead Suite.wav" WAVE TRACK 01 AUDIO FLAGS DCP INDEX 01 00:00:00 TRACK 02 AUDIO FLAGS DCP INDEX 00 19:39:45FILE "02 - Breakdown.wav" WAVE INDEX 01 00:00:00 TRACK 03 AUDIO FLAGS DCP INDEX 00 03:50:29FILE "03 - Escape Invasion.wav" WAVE INDEX 01 00:00:00 TRACK 04 AUDIO FLAGS DCP INDEX 00 03:56:25FILE "04 - The Dead Walk.wav" WAVE INDEX 01 00:00:00 TRACK 05 AUDIO FLAGS DCP INDEX 00 04:51:69FILE "05 - If Tomorrow Comes.wav" WAVE INDEX 01 00:00:00 TRACK 06 AUDIO FLAGS DCP INDEX 00 03:37:15FILE "06 - The World Inside Your Eyes.wav" WAVE INDEX 01 00:00:00 TRACK 07 AUDIO FLAGS DCP INDEX 00 03:29:43FILE "07 - Deadly Beginnings.wav" WAVE INDEX 01 00:00:00 TRACK 08 AUDIO FLAGS DCP INDEX 00 07:25:17FILE "08 - Diner of the Living Dead.wav" WAVE INDEX 01 00:00:00 TRACK 09 AUDIO FLAGS DCP INDEX 00 01:39:64FILE "09 - Dead Calm.wav" WAVE INDEX 01 00:00:00 TRACK 10 AUDIO FLAGS DCP INDEX 00 01:53:17FILE "10 - Bub's 9th.wav" WAVE INDEX 01 00:00:00FILE "11 - Dead End.wav" WAVE TRACK 11 AUDIO FLAGS DCP INDEX 01 00:00:00
 
<pre>
AUDIOCHECKER v2.0 beta (build 457) - by Dester - opdester@freemail.hu~~~~~~~~~~~~~~~~~~~~~~~~~~~~~~~~~~

Начато: воскресенье, 02. 08. 2009. - 10:24.11Найдено файлов: 11

01 -===- E:\MUSIC\OST\Day Of The Dead (1985) - John Harrison (FLAC)\11 - Dead End.flac Извлечение успешно выполнено Заключение: этот трек - CDDA с вероятностью 100% Временный файл удалён.

02 -===- E:\MUSIC\OST\Day Of The Dead (1985) - John Harrison (FLAC)\01 - The Dead Suite.flac Извлечение успешно выполнено Заключение: этот трек - CDDA с вероятностью 100% Временный файл удалён.

03 -===- E:\MUSIC\OST\Day Of The Dead (1985) - John Harrison (FLAC)\02 - Breakdown.flac Извлечение успешно выполнено Заключение: этот трек - CDDA с вероятностью 99% Временный файл удалён.

04 -===- E:\MUSIC\OST\Day Of The Dead (1985) - John Harrison (FLAC)\03 - Escape Invasion.flac Извлечение успешно выполнено Заключение: этот трек - CDDA с вероятностью 100% Временный файл удалён.

05 -===- E:\MUSIC\OST\Day Of The Dead (1985) - John Harrison (FLAC)\04 - The Dead Walk.flac Извлечение успешно выполнено Заключение: этот трек - CDDA с вероятностью 100% Временный файл удалён.

06 -===- E:\MUSIC\OST\Day Of The Dead (1985) - John Harrison (FLAC)\05 - If Tomorrow Comes.flac Извлечение успешно выполнено Заключение: этот трек - CDDA с вероятностью 100% Временный файл удалён.

07 -===- E:\MUSIC\OST\Day Of The Dead (1985) - John Harrison (FLAC)\06 - The World Inside Your Eyes.flac Извлечение успешно выполнено Заключение: этот трек - CDDA с вероятностью 100% Временный файл удалён.

08 -===- E:\MUSIC\OST\Day Of The Dead (1985) - John Harrison (FLAC)\07 - Deadly Beginnings.flac Извлечение успешно выполнено Заключение: этот трек - CDDA с вероятностью 100% Временный файл удалён.

09 -===- E:\MUSIC\OST\Day Of The Dead (1985) - John Harrison (FLAC)\08 - Diner of the Living Dead.flac Извлечение успешно выполнено Заключение: этот трек - CDDA с вероятностью 100% Временный файл удалён.

10 -===- E:\MUSIC\OST\Day Of The Dead (1985) - John Harrison (FLAC)\09 - Dead Calm.flac Извлечение успешно выполнено Заключение: этот трек - CDDA с вероятностью 99% Временный файл удалён.

11 -===- E:\MUSIC\OST\Day Of The Dead (1985) - John Harrison (FLAC)\10 - Bub's 9th.flac Извлечение успешно выполнено Заключение: этот трек - CDDA с вероятностью 99% Временный файл удалён.

Завершено: воскресенье, 02. 08. 2009. - 10:31.31 (Время операции: 0:07.19)
</pre>
Limited 3000 Copies, this is the first time this soundtrack has ever been put on to CD. It has been remastered and includes 5 extra tracks.



Трекер:  [ 27-Янв-2011 08:26 ]

  

Скачать .torrent

Размер .torrent файла 17 KB


Размер: 380 MB
Хэш (hash) релиза: 4176e0139d86da27a237b95019bc3ede9f8fe583

Еще никто не оставлял запись к записи скачать торрент День мертвецов Day Of The Dead . Будь первым!

!Обратная связь