Скачать через торрент музыку Катя Чехова - Мечтая бесплатно без регистрации torrent

Если у вас наблюдаются проблемы со скриншотами, переходом по ссылками, скачиванием торрентов - проблемы в блокировщике рекламы AdBlock. #хорошегоДня!


Статистика раздачи
Размер:  137 MB   |    Зарегистрирован:  6 лет 8 месяцев   |    .torrent скачан:  59 раз   |   
Раздают:  1  
   
Загрузка...
 
Автор Сообщение

AqvaGen


Катя Чехова - Мечтая

Жанр: Electro/House
Продолжительность: 3:41
Год выпуска: 2011
Описание: Катя Чехова вернулась в новом составе !

Качество: HD
Контейнер: MOV
Видео кодек: H.264
Аудио кодек: AAC
Видео: AVC/H.264, 1280x720, 16:9, 4922kbps, 29.97fps
Аудио: AAC, 264kbps (128kbps), 44kHz, 2 channels (stereo)
Format : MPEG-4
Format profile : QuickTime
Codec ID : qt
File size : 137 MiB
Duration : 3mn 41s
Overall bit rate : 5 193 Kbps
Encoded date : UTC 2011-01-17 15:28:18
Tagged date : UTC 2011-01-17 15:32:26
Writing application : CoreMediaAuthoring 700, CoreMedia 484.20, i386
Writing library : Apple QuickTime

Video
ID : 2
Format : AVC
Format/Info : Advanced Video Codec
Format profile : Main@L3.1
Format settings, CABAC : No
Format settings, ReFrames : 2 frames
Codec ID : avc1
Codec ID/Info : Advanced Video Coding
Duration : 3mn 41s
Bit rate mode : Variable
Bit rate : 4 922 Kbps
Width : 1 280 pixels
Height : 720 pixels
Display aspect ratio : 16:9
Frame rate mode : Constant
Frame rate : 29.970 fps
Color space : YUV
Chroma subsampling : 4:2:0
Bit depth : 8 bits
Scan type : Progressive
Bits/(Pixel*Frame) : 0.178
Stream size : 130 MiB (95%)
Title : Core Media Video
Encoded date : UTC 2011-01-17 15:28:18
Tagged date : UTC 2011-01-17 15:32:26
Color primaries : BT.709-5, BT.1361, IEC 61966-2-4, SMPTE RP177
Transfer characteristics : BT.709-5, BT.1361
Matrix coefficients : BT.709-5, BT.1361, IEC 61966-2-4 709, SMPTE RP177

Audio
ID : 1
Format : AAC
Format/Info : Advanced Audio Codec
Format version : Version 4
Format profile : LC
Format settings, SBR : No
Codec ID : 40
Duration : 3mn 41s
Bit rate mode : Constant
Bit rate : 264.6 Kbps
Nominal bit rate : 128 Kbps
Channel(s) : 2 channels
Channel positions : Front: L R
Sampling rate : 44.1 KHz
Stream size : 6.85 MiB (5%)
Title : Core Media Audio
Language : English
Encoded date : UTC 2011-01-17 15:28:18
Tagged date : UTC 2011-01-17 15:32:26


Трекер:  [ 27-Янв-2011 06:35 ]

  

Скачать .torrent

Размер .torrent файла 11 KB


Размер: 137 MB
Хэш (hash) релиза: 3caa291d2c8b9a8802b466fbb4b8d95a02f84133

xkavator

клип шикарен, а песня изумительна!!!

Хотите добавить комментарий к записи скачать торрент Катя Чехова - Мечтая

!Обратная связь