Скачать через торрент музыку Sleepy Hollow - Music From The Motion Picture бесплатно без регистрации torrent

Если у вас наблюдаются проблемы со скриншотами, переходом по ссылками, скачиванием торрентов - проблемы в блокировщике рекламы AdBlock. #хорошегоДня!


Статистика раздачи
Размер:  326 MB   |    Зарегистрирован:  6 лет 10 месяцев   |    .torrent скачан:  47 раз   |   
Раздают:  1  
   
Загрузка...
 
Автор Сообщение

Комедиант

avatar Комедиант


Sleepy Hollow - Music From The Motion Picture (Danny Elfman)

Страна: США
Жанр: Soundtrack
Год выпуска: 1998
Формат: APE (image + .cue)
Битрейт аудио: lossless

Трэклист:
1. Introductions 4:15
2. Main Titles 3:09
3. Young Ichabod 1:20
4. The Story... 4:28
5. Masbeth's Terrible Death 1:35
6. Sweet Dreams 1:11
7. A Gift 2:26
8. Into the Woods / The Witch 3:32
9. More Dreams 1:42
10. The Tree of Death 9:36
11. Bad Dream / Tender Moment 3:33
12. Evil Eye 3:43
13. The Church Battle 3:33
14. Love Lost 5:16
15. The Windmill 6:18
16. The Chase 3:11
17. The Final Confrontation 4:16
18. A New Day! 1:29
19. End Credits 3:17

Доп. информация: Саундтрэк Дэнни Эльфмана к великолепному фильму Тима Бертона "Сонная Лощина". Heads Will Roll!
Exact Audio Copy V0.99 prebeta 4 from 23. January 2008

EAC extraction logfile from 31. March 2008, 1:36

Danny Elfman / Sleepy Hollow

Used drive : TSSTcorpCD/DVDW SH-S183L Adapter: 1 ID: 0

Read mode : Secure
Utilize accurate stream : Yes
Defeat audio cache : Yes
Make use of C2 pointers : No

Read offset correction : 6
Overread into Lead-In and Lead-Out : No
Fill up missing offset samples with silence : Yes
Delete leading and trailing silent blocks : No
Null samples used in CRC calculations : Yes
Used interface : Native Win32 interface for Win NT & 2000

Used output format : Internal WAV Routines
Sample format : 44.100 Hz; 16 Bit; Stereo

TOC of the extracted CD

Track | Start | Length | Start sector | End sector
---------------------------------------------------------
1 | 0:00.00 | 4:19.74 | 0 | 19498
2 | 4:19.74 | 3:13.41 | 19499 | 34014
3 | 7:33.40 | 1:24.04 | 34015 | 40318
4 | 8:57.44 | 4:32.44 | 40319 | 60762
5 | 13:30.13 | 1:39.52 | 60763 | 68239
6 | 15:09.65 | 1:15.26 | 68240 | 73890
7 | 16:25.16 | 2:30.59 | 73891 | 85199
8 | 18:56.00 | 3:36.19 | 85200 | 101418
9 | 22:32.19 | 1:46.29 | 101419 | 109397
10 | 24:18.48 | 9:40.24 | 109398 | 152921
11 | 33:58.72 | 3:37.44 | 152922 | 169240
12 | 37:36.41 | 3:47.04 | 169241 | 186269
13 | 41:23.45 | 3:35.68 | 186270 | 202462
14 | 44:59.38 | 5:20.46 | 202463 | 226508
15 | 50:20.09 | 6:22.09 | 226509 | 255167
16 | 56:42.18 | 3:16.49 | 255168 | 269916
17 | 59:58.67 | 4:21.02 | 269917 | 289493
18 | 64:19.69 | 1:33.41 | 289494 | 296509
19 | 65:53.35 | 3:18.14 | 296510 | 311373

Range status and errors

Selected range

Filename D:\Music\Danny Elfman\Sleepy Hollow\Danny Elfman - Sleepy Hollow.wav

Peak level 100.0 %
Range quality 100.0 %
Copy CRC F9C7047C
Copy OK

No errors occurred

End of status report


Трекер:  [ 26-Янв-2011 22:50 ]

  

Скачать .torrent

Размер .torrent файла 13 KB


Размер: 326 MB
Хэш (hash) релиза: 7982a1505b78bffce0fe48e5db9581b93aba8262

Еще никто не оставлял запись к записи скачать торрент Sleepy Hollow - Music From The Motion Picture . Будь первым!

!Обратная связь