Скачать через торрент музыку Russell Smith - Sunday Best - The Cream of the Solo Albums - 2001, APE бесплатно без регистрации torrent

Если у вас наблюдаются проблемы со скриншотами, переходом по ссылками, скачиванием торрентов - проблемы в блокировщике рекламы AdBlock. #хорошегоДня!


Статистика раздачи
Размер:  432 MB   |    Зарегистрирован:  3 года 7 месяцев   |    .torrent скачан:  137 раз   |   
Раздают:  1  
   
Загрузка...
 
Автор Сообщение

Galfimbul

avatar Galfimbul


Russell Smith - Sunday Best (The Cream of the Solo Albums)


Жанр: Country | Soft Rock
Страна-производитель диска: Australia
Год издания: 2001
Издатель (лейбл): Raven
Номер по каталогу: RVCD-118
Страна: USA
Аудиокодек: APE (*.ape)
Тип рипа: image+.cue
Битрейт аудио: lossless
Продолжительность: 01:18:27
Источник (релизер): internet
Наличие сканов в содержимом раздачи: да



01. If I Didn''t Have You [00:02:53]
02. Hold Me [00:03:01]
03. Writing On The wall [00:03:26]
04. Hesitation [00:02:18]
05. When The Night Comes To Call [00:03:21]
06. Your Eyes [00:02:58]
07. She Still Knows How [00:02:47]
08. A Picture Of You [00:02:44]
09. Anger And Tears [00:03:15]
10. Jenny Hold On [00:03:16]
11. Who''s Makin'' Love [00:02:42]
12. What I Learned From Loving You [00:03:40]
13. I Wonder What She''s Doing Tonight [00:03:20]
14. Lonely Knight [00:03:33]
15. Mona [00:03:20]
16. This Little Town [00:04:19]
17. Southern Music [00:03:24]
18. Blue Collar Blues [00:04:06]
19. Night Flight [00:04:04]
20. If You Change Your Mind [00:03:44]
21. Sunday Best [00:02:53]
22. The Boy Next Door [00:04:12]
23. An American Tragedy [00:04:59]
Exact Audio Copy V1.0 beta 2 from 29. April 2011

Отчёт EAC об извлечении, выполненном 27. декабря 2013, 17:02

Russell Smith / Sunday Best

Дисковод: _NEC DV-5800C Adapter: 3 ID: 1

Режим чтения : ДостоверностьИспользование точного потока : ДаОтключение кэша аудио : ДаИспользование указателей C2 : Нет

Коррекция смещения при чтении : 12Способность читать области Lead-in и Lead-out : НетЗаполнение пропущенных сэмплов тишиной : ДаУдаление блоков с тишиной в начале и конце : НетПри вычислениях CRC использовались нулевые сэмплы : НетИнтерфейс : Встроенный Win32-интерфейс для Win NT/2000

Выходной формат : Внутренние WAV-операцииФормат сэмплов : 44.100 Гц; 16 бит; стерео

TOC извлечённого CD

Трек | Старт | Длительность | Начальный сектор | Конечный сектор --------------------------------------------------------------------- 1 | 0:00.00 | 2:53.41 | 0 | 13015 2 | 2:53.41 | 3:01.72 | 13016 | 26662 3 | 5:55.38 | 3:26.15 | 26663 | 42127 4 | 9:21.53 | 2:18.35 | 42128 | 52512 5 | 11:40.13 | 3:21.25 | 52513 | 67612 6 | 15:01.38 | 2:58.69 | 67613 | 81031 7 | 18:00.32 | 2:47.70 | 81032 | 93626 8 | 20:48.27 | 2:44.36 | 93627 | 105962 9 | 23:32.63 | 3:15.23 | 105963 | 120610 10 | 26:48.11 | 3:16.74 | 120611 | 135384 11 | 30:05.10 | 2:42.58 | 135385 | 147592 12 | 32:47.68 | 3:40.46 | 147593 | 164138 13 | 36:28.39 | 3:20.68 | 164139 | 179206 14 | 39:49.32 | 3:33.00 | 179207 | 195181 15 | 43:22.32 | 3:20.07 | 195182 | 210188 16 | 46:42.39 | 4:19.08 | 210189 | 229621 17 | 51:01.47 | 3:24.66 | 229622 | 244987 18 | 54:26.38 | 4:06.36 | 244988 | 263473 19 | 58:32.74 | 4:04.09 | 263474 | 281782 20 | 62:37.08 | 3:44.50 | 281783 | 298632 21 | 66:21.58 | 2:53.42 | 298633 | 311649 22 | 69:15.25 | 4:12.37 | 311650 | 330586 23 | 73:27.62 | 4:59.64 | 330587 | 353075

Характеристики диапазона извлечения и сообщения об ошибках

Выбранный диапазон

Имя файла D:\Russell Smith - Sunday Best.wav

Пиковый уровень 100.0 % Скорость извлечения 7.4 X Качество диапазона 99.9 % CRC копии A3572DE1 Копирование... OK

Ошибок не произошло

AccurateRip: сводка

Трек 1 : извлечено точно (доверие 2) [3387D52C] (AR v2)Трек 2 : извлечено точно (доверие 2) [9D042EA7] (AR v2)Трек 3 : извлечено точно (доверие 2) [58ED1B59] (AR v2)Трек 4 : извлечено точно (доверие 2) [4E5D057E] (AR v2)Трек 5 : извлечено точно (доверие 2) [ADFD7633] (AR v2)Трек 6 : извлечено точно (доверие 2) [EC372652] (AR v2)Трек 7 : извлечено точно (доверие 2) [682E9677] (AR v2)Трек 8 : извлечено точно (доверие 2) [721CB67E] (AR v2)Трек 9 : извлечено точно (доверие 2) [1C4E3C70] (AR v2)Трек 10 : извлечено точно (доверие 2) [74D1020F] (AR v2)Трек 11 : извлечено точно (доверие 2) [C50CA687] (AR v2)Трек 12 : извлечено точно (доверие 2) [539B3E32] (AR v2)Трек 13 : извлечено точно (доверие 2) [7D272C80] (AR v2)Трек 14 : извлечено точно (доверие 2) [61269799] (AR v2)Трек 15 : извлечено точно (доверие 2) [BD5921BE] (AR v2)Трек 16 : извлечено точно (доверие 2) [8D9DC5CF] (AR v2)Трек 17 : извлечено точно (доверие 2) [376E696E] (AR v2)Трек 18 : извлечено точно (доверие 2) [464D6616] (AR v2)Трек 19 : извлечено точно (доверие 2) [1DB34ECB] (AR v2)Трек 20 : извлечено точно (доверие 2) [B117A94E] (AR v2)Трек 21 : извлечено точно (доверие 2) [3F2BD1ED] (AR v2)Трек 22 : извлечено точно (доверие 2) [98FDD559] (AR v2)Трек 23 : извлечено точно (доверие 2) [73F28AE4] (AR v2)

Все треки извлечены точно

Конец отчёта
REM GENRE CountryREM DISCID 42126317REM COMMENT "ExactAudioCopy v1.0b2"PERFORMER "Russell Smith"TITLE "Sunday Best"FILE "Russell Smith - Sunday Best.wav" WAVE TRACK 01 AUDIO TITLE "If I Didn''t Have You" PERFORMER "Russell Smith" INDEX 01 00:00:00 TRACK 02 AUDIO TITLE "Hold Me" PERFORMER "Russell Smith" INDEX 01 02:53:41 TRACK 03 AUDIO TITLE "Writing On The wall" PERFORMER "Russell Smith" INDEX 01 05:55:38 TRACK 04 AUDIO TITLE "Hesitation" PERFORMER "Russell Smith" INDEX 01 09:21:53 TRACK 05 AUDIO TITLE "When The Night Comes To Call" PERFORMER "Russell Smith" INDEX 01 11:40:13 TRACK 06 AUDIO TITLE "Your Eyes" PERFORMER "Russell Smith" INDEX 01 15:01:38 TRACK 07 AUDIO TITLE "She Still Knows How" PERFORMER "Russell Smith" INDEX 01 18:00:32 TRACK 08 AUDIO TITLE "A Picture Of You" PERFORMER "Russell Smith" INDEX 01 20:48:27 TRACK 09 AUDIO TITLE "Anger And Tears" PERFORMER "Russell Smith" INDEX 01 23:32:63 TRACK 10 AUDIO TITLE "Jenny Hold On" PERFORMER "Russell Smith" INDEX 01 26:48:11 TRACK 11 AUDIO TITLE "Who''s Makin'' Love" PERFORMER "Russell Smith" INDEX 01 30:05:10 TRACK 12 AUDIO TITLE "What I Learned From Loving You" PERFORMER "Russell Smith" INDEX 01 32:47:68 TRACK 13 AUDIO TITLE " I Wonder What She''s Doing Tonight" PERFORMER "Russell Smith" INDEX 01 36:28:39 TRACK 14 AUDIO TITLE "Lonely Knight" PERFORMER "Russell Smith" INDEX 01 39:49:32 TRACK 15 AUDIO TITLE "Mona" PERFORMER "Russell Smith" INDEX 01 43:22:32 TRACK 16 AUDIO TITLE "This Little Town" PERFORMER "Russell Smith" INDEX 01 46:42:39 TRACK 17 AUDIO TITLE "Southern Music" PERFORMER "Russell Smith" INDEX 01 51:01:47 TRACK 18 AUDIO TITLE "Blue Collar Blues" PERFORMER "Russell Smith" INDEX 01 54:26:38 TRACK 19 AUDIO TITLE "Night Flight" PERFORMER "Russell Smith" INDEX 01 58:32:74 TRACK 20 AUDIO TITLE "If You Change Your Mind" PERFORMER "Russell Smith" INDEX 01 62:37:08 TRACK 21 AUDIO TITLE "Sunday Best" PERFORMER "Russell Smith" INDEX 01 66:21:58 TRACK 22 AUDIO TITLE "The Boy Next Door" PERFORMER "Russell Smith" INDEX 01 69:15:25 TRACK 23 AUDIO TITLE "An American Tragedy" PERFORMER "Russell Smith" INDEX 01 73:27:62
-----------------------

DON''T MODIFY THIS FILE

-----------------------

PERFORMER: auCDtect Task Manager, ver. 1.5.1RC6 build 1.5.1.7Copyright (c) 2008-2010 y-soft. All rights reservedhttp://y-soft.org

ANALYZER: auCDtect: CD records authenticity detector, version 0.8.2Copyright (c) 2004 Oleg Berngardt. All rights reserved.Copyright (c) 2004 Alexander Djourik. All rights reserved.

FILE: Russell Smith - Sunday Best.ape Size: 447565116 Hash: 6D7EE991CAAF726022C9F7B834A5485D Accuracy: -m0 Conclusion: CDDA 100% Signature: E6CC11FB82EBF7416A32E8EFC2E09E79DE8BFA85


Трекер:  [ 28-Дек-2013 13:34 ]

  

Скачать .torrent

Размер .torrent файла 18 KB


Размер: 432 MB
Хэш (hash) релиза: 0ea2bb307b4bfb13764c96db754ee5fca38adae6

Еще никто не оставлял запись к записи скачать торрент Russell Smith - Sunday Best - The Cream of the Solo Albums - 2001, APE . Будь первым!

!Обратная связь