Скачать порно через торрент Samayou Midara na Lunatics Wandering Dirty Lunatics UnionPeer.org бесплатно онлайн HD качество

Скачать новое порно 2015, 2014 новинки через торрент UnionPeer.org

Порно торрент бесплатно ЮнионПир.орг

Если у вас наблюдаются проблемы со скриншотами, переходом по ссылками, скачиванием торрентов - проблемы в блокировщике рекламы AdBlock. #хорошегоДня!


Статистика раздачи
Размер:  4.8 GB   |    Зарегистрирован:  3 года 7 месяцев   |    .torrent скачан:  96 раз   |   
Раздают:  1  
   
Загрузка...
 
Автор Сообщение

Galfimbul

avatar Galfimbul


Samayou Midara na Lunatics / Wandering Dirty Lunatics / 彷徨う淫らなルナティクス / Блуждающие развратные лунатики

Год производства: 2009 г.
Жанр: Anal sex, Big tits, Group sex, Oral sex, Fantasy, Incest, Princess, Tentacles, Virgin
Серии: ep. 1-2 of 2
Продолжительность: 2х~26 min
Цензура: Есть

Озвучка: Японская (Оригинальная)

Режиссер: Makino Yukihiro
Автор оригинала: Lilith
Студия: Pixy

Описание RUS: В далёком царстве, в тридесятом государстве, жила была молодая принцесса, и влюбилась та принцесса в паренька. Не знала принцесса, как овладеть сердцем паренька, но тут на помощь пришла добрая мама с волшебным зельем. Пробралась тогда ночью принцесса в комнату к парню, в прекрасном просвечивающем одеянии и выпила зелье. Сработало зелье и поцелуй принцессы обездвижил паренька, и начала принцесса развлекаться с его достоинством. Неопытна была ещё принцесса, но это не помешало заставить паренька кончить, дальше принцесса решила сама получить удовольствие и начала..

Описание ENG: Afa and Alois, a lovely siblings before being the princess and prince of certain Kingdom, both destined to be its symbol in the future. Afa has a secret, she is in love with his brother but don't know how to make his brother notice her feelings for him, Rihiteri, the Queen and stepmother of Afa and Alois talks woman to woman to Afa and motivates her to express his love to her brother. That nig...

Информационные ссылки: AniDB - MAL - World Art - ХентайМаг

Качество видео: 2x DVD5
Формат видео: DVD Video
Видео кодек: MPEG2
Аудио кодек: AC3
Видео: 720х480, (16:9), 29,970 кадров/сек, ~ 6500 Кбит/сек, NTSC
Аудио: JAP, AC-3, 2 канала, 192 Кбит/сек, 48,0 КГц
Общее
Полное имя : J:\VIDEO_TS\VTS_01_1.VOB
Формат : MPEG-PS
Размер файла : 1024 Мбайт
Продолжительность : 20 м.
Общий поток : 6886 Кбит/сек

Видео
Идентификатор : 224 (0xE0)
Формат : MPEG Video
Версия формата : Version 2
Профиль формата : Main@Main
Параметр BVOP формата : Да
Параметр матрицы формата : Выборочная
Параметр GOP формата : M=3, N=15
Продолжительность : 20 м.
Битрейт : 6557 Кбит/сек
Максимальный битрейт : 8000 Кбит/сек
Ширина : 720 пикселей
Высота : 480 пикселей
Соотношение сторон : 16:9
Частота кадров : 29,970 кадров/сек
Стандарт вещания : NTSC
Цветовое пространство : YUV
Субдискретизация насыщенности : 4:2:0
Битовая глубина : 8 бит
Тип развёртки : Чересстрочная
Порядок развёртки : Верхнее поле первое
Метод сжатия : С потерями
Бит/(Пиксели*Кадры) : 0.633
Временной код первого кадра : 01:00:00:00
Оригинал временного кода : Group of pictures header
Размер потока : 975 Мбайт (95%)

Аудио
Идентификатор : 189 (0xBD)-128 (0x80)
Формат : AC-3
Формат/Информация : Audio Coding 3
Расширение режима : CM (complete main)
Параметр Endianness формата : Big
Режим смешивания : DVD-Video
Продолжительность : 20 м.
Вид битрейта : Постоянный
Битрейт : 192 Кбит/сек
Каналы : 2 канала
Расположение каналов : Front: L R
Частота : 48,0 КГц
Битовая глубина : 16 бит
Метод сжатия : С потерями
Задержка видео : -66 мс.
Размер потока : 28,5 Мбайт (3%)

Меню


Трекер:  [ 28-Дек-2013 12:44 ]

  

Скачать .torrent

Размер .torrent файла 12 KB


Размер: 4.8 GB
Хэш (hash) релиза: da564f145a7ca64a39d95d7507858664b7d10588

Еще никто не оставлял запись к записи скачать торрент Samayou Midara na Lunatics Wandering Dirty Lunatics . Будь первым!

!Обратная связь