Скачать через торрент музыку The Charlie Daniels Band - Hits Of The South - 2013, APE бесплатно без регистрации torrent

Если у вас наблюдаются проблемы со скриншотами, переходом по ссылками, скачиванием торрентов - проблемы в блокировщике рекламы AdBlock. #хорошегоДня!


Статистика раздачи
Размер:  377 MB   |    Зарегистрирован:  3 года 7 месяцев   |    .torrent скачан:  189 раз   |   
Раздают:  1  
   
Загрузка...
 
Автор Сообщение

Galfimbul

avatar Galfimbul


The Charlie Daniels Band - Hits Of The South


Жанр: Southern Rock | Country
Год издания: 2013
Издатель (лейбл): Blue Hot
Номер по каталогу: 9713
Аудиокодек: APE (*.ape)
Тип рипа: image+.cue
Битрейт аудио: lossless
Продолжительность: 00:55:35
Источник (релизер): internet
Наличие сканов в содержимом раздачи: да



01. Signed Sealed Delivered I''m Yours (with Bonnie Bramlett) [00:04:05]
02. Long Haired Country Boy (with Brooks & Dunn) [00:04:19]
03. Southern Boy (with Travis Tritt) [00:02:57]
04. The Night They Drove Old Dixie Down (with Vince Gill) [00:04:00]
05. Statesboro Blues [00:04:22]
06. The South''s Gonna Do It (Again) [00:03:56]
07. Sharp Dressed Man [00:04:46]
08. The Devil Went Down To Georgia [00:03:43]
09. In Memory of Elizabeth Reed [00:05:14]
10. Freebird [00:07:09]
11. Birmingham Blues [00:04:57]
12. Can''t You See [00:06:02]
Exact Audio Copy V1.0 beta 2 from 29. April 2011

Отчёт EAC об извлечении, выполненном 28. декабря 2013, 11:27

The Charlie Daniels Band / Hits Of The South

Дисковод: _NEC DV-5800C Adapter: 3 ID: 1

Режим чтения : ДостоверностьИспользование точного потока : ДаОтключение кэша аудио : ДаИспользование указателей C2 : Нет

Коррекция смещения при чтении : 12Способность читать области Lead-in и Lead-out : НетЗаполнение пропущенных сэмплов тишиной : ДаУдаление блоков с тишиной в начале и конце : НетПри вычислениях CRC использовались нулевые сэмплы : НетИнтерфейс : Встроенный Win32-интерфейс для Win NT/2000

Выходной формат : Внутренние WAV-операцииФормат сэмплов : 44.100 Гц; 16 бит; стерео

TOC извлечённого CD

Трек | Старт | Длительность | Начальный сектор | Конечный сектор --------------------------------------------------------------------- 1 | 0:00.00 | 4:05.26 | 0 | 18400 2 | 4:05.26 | 4:19.06 | 18401 | 37831 3 | 8:24.32 | 2:57.35 | 37832 | 51141 4 | 11:21.67 | 4:00.08 | 51142 | 69149 5 | 15:22.00 | 4:22.60 | 69150 | 88859 6 | 19:44.60 | 3:56.57 | 88860 | 106616 7 | 23:41.42 | 4:46.35 | 106617 | 128101 8 | 28:28.02 | 3:43.64 | 128102 | 144890 9 | 32:11.66 | 5:14.65 | 144891 | 168505 10 | 37:26.56 | 7:09.28 | 168506 | 200708 11 | 44:36.09 | 4:57.60 | 200709 | 223043 12 | 49:33.69 | 6:02.05 | 223044 | 250198

Характеристики диапазона извлечения и сообщения об ошибках

Выбранный диапазон

Имя файла D:\The Charlie Daniels Band - Hits Of The South.wav

Пиковый уровень 100.0 % Скорость извлечения 9.1 X Качество диапазона 100.0 % CRC копии 30A5F63B Копирование... OK

Ошибок не произошло

AccurateRip: сводка

Трек 1 отсутствует в базе данныхТрек 2 отсутствует в базе данныхТрек 3 отсутствует в базе данныхТрек 4 отсутствует в базе данныхТрек 5 отсутствует в базе данныхТрек 6 отсутствует в базе данныхТрек 7 отсутствует в базе данныхТрек 8 отсутствует в базе данныхТрек 9 отсутствует в базе данныхТрек 10 отсутствует в базе данныхТрек 11 отсутствует в базе данныхТрек 12 отсутствует в базе данных

Ни одного трека нет в базе AccurateRip

Конец отчёта
REM GENRE "Southern Rock"REM DATE 2013REM DISCID AB0D070CREM COMMENT "ExactAudioCopy v1.0b2"PERFORMER "The Charlie Daniels Band"TITLE "Hits Of The South"FILE "The Charlie Daniels Band - Hits Of The South.wav" WAVE TRACK 01 AUDIO TITLE "Signed Sealed Delivered I''m Yours (with Bonnie Bramlett)" PERFORMER "The Charlie Daniels Band" INDEX 01 00:00:00 TRACK 02 AUDIO TITLE "Long Haired Country Boy (with Brooks & Dunn)" PERFORMER "The Charlie Daniels Band" INDEX 01 04:05:26 TRACK 03 AUDIO TITLE "Southern Boy (with Travis Tritt)" PERFORMER "The Charlie Daniels Band" INDEX 01 08:24:32 TRACK 04 AUDIO TITLE "The Night They Drove Old Dixie Down (with Vince Gill)" PERFORMER "The Charlie Daniels Band" INDEX 01 11:21:67 TRACK 05 AUDIO TITLE "Statesboro Blues" PERFORMER "The Charlie Daniels Band" INDEX 01 15:22:00 TRACK 06 AUDIO TITLE "The South''s Gonna Do It (Again)" PERFORMER "The Charlie Daniels Band" INDEX 01 19:44:60 TRACK 07 AUDIO TITLE "Sharp Dressed Man" PERFORMER "The Charlie Daniels Band" INDEX 01 23:41:42 TRACK 08 AUDIO TITLE "The Devil Went Down To Georgia" PERFORMER "The Charlie Daniels Band" INDEX 01 28:28:02 TRACK 09 AUDIO TITLE "In Memory of Elizabeth Reed" PERFORMER "The Charlie Daniels Band" INDEX 01 32:11:66 TRACK 10 AUDIO TITLE "Freebird" PERFORMER "The Charlie Daniels Band" INDEX 01 37:26:56 TRACK 11 AUDIO TITLE "Birmingham Blues" PERFORMER "The Charlie Daniels Band" INDEX 01 44:36:09 TRACK 12 AUDIO TITLE "Can''t You See" PERFORMER "The Charlie Daniels Band" INDEX 01 49:33:69
-----------------------

DON''T MODIFY THIS FILE

-----------------------

PERFORMER: auCDtect Task Manager, ver. 1.5.1RC6 build 1.5.1.7Copyright (c) 2008-2010 y-soft. All rights reservedhttp://y-soft.org

ANALYZER: auCDtect: CD records authenticity detector, version 0.8.2Copyright (c) 2004 Oleg Berngardt. All rights reserved.Copyright (c) 2004 Alexander Djourik. All rights reserved.

FILE: The Charlie Daniels Band - Hits Of The South.ape Size: 393271384 Hash: 828584BBE89750BD142E797FC401652E Accuracy: -m0 Conclusion: CDDA 100% Signature: DD3A49B1CE3A9B841196B58FDBEB0AD466EBEF69


Трекер:  [ 28-Дек-2013 13:34 ]

  

Скачать .torrent

Размер .torrent файла 15 KB


Размер: 377 MB
Хэш (hash) релиза: bf8f462766199a85995ae30c8fd75da0aa9ff404

Еще никто не оставлял запись к записи скачать торрент The Charlie Daniels Band - Hits Of The South - 2013, APE . Будь первым!

!Обратная связь