Скачать порно через торрент Kansen Ball Buster The Animation Заражение ~Власть женщин~ UnionPeer.org бесплатно онлайн HD качество

Скачать новое порно 2015, 2014 новинки через торрент UnionPeer.org

Порно торрент бесплатно ЮнионПир.орг

Если у вас наблюдаются проблемы со скриншотами, переходом по ссылками, скачиванием торрентов - проблемы в блокировщике рекламы AdBlock. #хорошегоДня!


Статистика раздачи
Размер:  989 MB   |    Зарегистрирован:  3 года 7 месяцев   |    .torrent скачан:  357 раз   |   
Раздают:  1  
   
Загрузка...
 
Автор Сообщение

Galfimbul

avatar Galfimbul


Kansen Ball Buster The Animation / 姦染 Ball Buster The Animation / Заражение ~Власть женщин~

Год производства: 2013 г.
Жанр: Big tits, Group sex, Oral sex, School, Teachers
Серии: ep. 1
Продолжительность: 1х~22 min + 6 min трейлеры
Цензура: Есть

Озвучка: Японская (Оригинальная)

Автор оригинала: Speed
Студия: Mitsui Company Ltd.

Описание RUS: Суть в первоисточнике одна — девки заражаются толпами, целыми школьными клубами, и насилуют попавшихся под руку мужиков. Главный герой тоже оказывается на пути бешеных атлеток, пловчих и чирлидерш. Правда радость группового спаривания немного омрачает тот факт, что среди заражённых его младшая сестра (в купальнике на картинке сверху) и подруга детства. ©hentaimag.ru

Описание ENG: The essence in the original one - the girls are infected crowds, whole school clubs, and raped men came to hand. The protagonist also is on the way rabid female athletes, swimmers and cheerleaders. True joy group pairing slightly overshadows the fact that among the infected his younger sister (in a bathing suit in the picture above) and a childhood friend.

Информационные ссылки: AniDB - MAL - World Art - ХентайМаг

Качество видео: DVD5
Формат видео: DVD Video
Видео кодек: MPEG2
Аудио кодек: AC3
Видео: 720х480, (16:9), 29,970 кадров/сек, ~ 7800 Кбит/сек, NTSC
Аудио: JAP, AC-3, 2 канала, 384 Кбит/сек, 48,0 КГц
Общее
Полное имя : J:\VIDEO_TS\VTS_01_1.VOB
Формат : MPEG-PS
Размер файла : 976 Мбайт
Продолжительность : 1 м. 31 с.
Общий поток : 89,9 Мбит/сек

Видео
Идентификатор : 224 (0xE0)
Формат : MPEG Video
Версия формата : Version 2
Профиль формата : Main@Main
Параметр BVOP формата : Да
Параметр матрицы формата : Выборочная
Параметр GOP формата : Variable
Продолжительность : 1 м. 31 с.
Битрейт : 87,7 Мбит/сек
Максимальный битрейт : 7800 Кбит/сек
Ширина : 720 пикселей
Высота : 480 пикселей
Соотношение сторон : 16:9
Частота кадров : 29,970 кадров/сек
Стандарт вещания : NTSC
Цветовое пространство : YUV
Субдискретизация насыщенности : 4:2:0
Битовая глубина : 8 бит
Тип развёртки : Чересстрочная
Порядок развёртки : Верхнее поле первое
Метод сжатия : С потерями
Бит/(Пиксели*Кадры) : 8.470
Временной код первого кадра : 01:00:13:00
Оригинал временного кода : Group of pictures header
Размер потока : 953 Мбайт (98%)

Аудио
Идентификатор : 189 (0xBD)-128 (0x80)
Формат : AC-3
Формат/Информация : Audio Coding 3
Расширение режима : CM (complete main)
Параметр Endianness формата : Big
Режим смешивания : DVD-Video
Продолжительность : 1 м. 31 с.
Вид битрейта : Постоянный
Битрейт : 384 Кбит/сек
Каналы : 2 канала
Расположение каналов : Front: L R
Частота : 48,0 КГц
Битовая глубина : 16 бит
Метод сжатия : С потерями
Размер потока : 4,17 Мбайт (0%)

Меню


Трекер:  [ 26-Дек-2013 17:21 ]

  

Скачать .torrent

Размер .torrent файла 20 KB


Размер: 989 MB
Хэш (hash) релиза: 5fe291ef3fe1e5e73d18364a6b98272b4623eccb

Еще никто не оставлял запись к записи скачать торрент Kansen Ball Buster The Animation Заражение ~Власть женщин~ . Будь первым!

!Обратная связь