Скачать через торрент музыку VA - Формула Движения 1 - 2002, FLAC бесплатно без регистрации torrent

Если у вас наблюдаются проблемы со скриншотами, переходом по ссылками, скачиванием торрентов - проблемы в блокировщике рекламы AdBlock. #хорошегоДня!


Статистика раздачи
Размер:  516 MB   |    Зарегистрирован:  3 года 7 месяцев   |    .torrent скачан:  49 раз   |   
Раздают:  1  
   
Загрузка...
 
Автор Сообщение

Galfimbul

avatar Galfimbul


Various Artists - Формула Движения 1

Жанр: Pop\Dance
Страна-производитель диска: Россия
Год издания диска: 2002
Издатель (лейбл): Real Records (Iceberg Music)
Номер по каталогу: RR-192-CD
Аудио кодек: FLAC (*.flac)
Тип рипа: image+.cue
Битрейт аудио: lossless
Продолжительность: 71:31
Источник (релизер): Диск из личной коллекции
Наличие сканов в содержимом раздачи: да, 600dpi
Треклист:

01. Турбомода - Едем мы на юг
02. Блестящие - А я всё летала
03. Света - Лети за облака
04. Краски - Он не знает ничего (ремикс)
05. DЭМО - Не уходи
06. Банда Андрюха & Алексин - Страшная
07. Евро - Карусель
08. Як40 - Мишка
09. !БУМ! - Море
10. Поющие вместе - Такого как Путин
11. J.Jей Power - Не делай глупостей
12. 140 ударов в минуту - Летняя
13. Игорёк - Сказка
14. Maxi-M - Заведи
15. В.Ульянов - Обломы
16. Премьер-Министр - Легкие Деньги
17. Гости из Будущего - Он улетел
18. Юта - Хмель и Солод (ремикс)
19. Hi-Fi - Olle!
Exact Audio Copy V1.0 beta 1 from 15. November 2010

Отчёт EAC об извлечении, выполненном 5. марта 2011, 18:24

Various / Формула Движения 1

Дисковод: ASUS DRW-24B1LT Adapter: 1 ID: 0

Режим чтения : ДостоверностьИспользование точного потока : ДаОтключение кэша аудио : ДаИспользование указателей C2 : Нет

Коррекция смещения при чтении : 6Способность читать области Lead-in и Lead-out : НетЗаполнение пропущенных сэмплов тишиной : ДаУдаление блоков с тишиной в начале и конце : НетПри вычислениях CRC использовались нулевые сэмплы : ДаИнтерфейс : Встроенный Win32-интерфейс для Win NT/2000

Выходной формат : Внутренние WAV-операцииФормат сэмплов : 44.100 Гц; 16 бит; стерео

TOC извлечённого CD

Трек | Старт | Длительность | Начальный сектор | Конечный сектор --------------------------------------------------------------------- 1 | 0:00.00 | 3:34.20 | 0 | 16069 2 | 3:34.20 | 3:54.41 | 16070 | 33660 3 | 7:28.61 | 3:59.67 | 33661 | 51652 4 | 11:28.53 | 3:57.10 | 51653 | 69437 5 | 15:25.63 | 4:07.19 | 69438 | 87981 6 | 19:33.07 | 3:26.23 | 87982 | 103454 7 | 22:59.30 | 3:54.49 | 103455 | 121053 8 | 26:54.04 | 3:36.20 | 121054 | 137273 9 | 30:30.24 | 4:02.01 | 137274 | 155424 10 | 34:32.25 | 3:01.42 | 155425 | 169041 11 | 37:33.67 | 4:13.00 | 169042 | 188016 12 | 41:46.67 | 3:41.56 | 188017 | 204647 13 | 45:28.48 | 3:54.26 | 204648 | 222223 14 | 49:22.74 | 3:57.10 | 222224 | 240008 15 | 53:20.09 | 3:21.12 | 240009 | 255095 16 | 56:41.21 | 3:30.25 | 255096 | 270870 17 | 60:11.46 | 3:57.24 | 270871 | 288669 18 | 64:08.70 | 4:02.54 | 288670 | 306873 19 | 68:11.49 | 3:17.41 | 306874 | 321689

Характеристики диапазона извлечения и сообщения об ошибках

Выбранный диапазон

Имя файла T:\LossLess\Формула Движения 1\Various - Формула Движения 1.wav

Пиковый уровень 100.0 %0.3 X Качество диапазона 100.0 % CRC теста 2D54C717 CRC копии 2D54C717 Копирование... OK

Ошибок не произошло

Конец отчёта

==== 7ED17692BC96B86D9AD30E3B6E9457F4C90ECE4E25E48DB05C5A48686C448A27 ====
Сборник задумывался как параллельная серия по отношению к серии "Красочный", выходившей там же. Но руководство лейбла решило решило не развивать тему "попсы", сделав упор на "правильный рок" и звезд "первой величины". Продолжения серии не было


Трекер:  [ 26-Дек-2013 15:33 ]

  

Скачать .torrent

Размер .torrent файла 11 KB


Размер: 516 MB
Хэш (hash) релиза: ca59f863030ca8891026e5fa8f58f131b13b8808

Еще никто не оставлял запись к записи скачать торрент VA - Формула Движения 1 - 2002, FLAC . Будь первым!

!Обратная связь