Скачать через торрент музыку бесплатно без регистрации torrent

Если у вас наблюдаются проблемы со скриншотами, переходом по ссылками, скачиванием торрентов - проблемы в блокировщике рекламы AdBlock. #хорошегоДня!


Статистика раздачи
Размер:  317 MB   |    Зарегистрирован:  3 года 9 месяцев   |    .torrent скачан:  149 раз   |   
Раздают:  1  
   
Загрузка...
 
Автор Сообщение

Galfimbul

avatar Galfimbul


♦ Lisa Mann - Satisfied ♦

Жанр: Modern Electric Blues
Носитель: CD
Год издания: 2012
Издатель (лейбл): Lisa Mann
Аудиокодек: FLAC (*.flac)
Тип рипа: tracks+.cue
Битрейт аудио: lossless
Продолжительность: 00:51:15
Источник (релизер): NetLab
Наличие сканов в содержимом раздачи: да

Треклист:

01. See You Next Tuesday [02:58]
02. Gamblin'' Virgin Mary [04:27]
03. Satisfied [02:34]
04. Surrender To The Blues [05:19]
05. Have I Told You I Love You Today [02:45]
06. Always Nobody [04:22]
07. Til The Wheels Come Off [03:40]
08. Catch When I Fall [05:31]
09. I Was Gonna [03:34]
10. Alone [03:00]
11. Don''t Touch Me [04:10]
12. Kingd Of Black Gold [04:45]
13. Doin'' Alright [04:04]
Exact Audio Copy V0.99 prebeta 5 from 4. May 2009

EAC extraction logfile from 26. November 2012, 9:36

Lisa Mann / Satisfied

Used drive : LITE-ON DVD SOHD-16P9S Adapter: 0 ID: 1

Read mode : SecureUtilize accurate stream : YesDefeat audio cache : YesMake use of C2 pointers : No

Read offset correction : 6Overread into Lead-In and Lead-Out : NoFill up missing offset samples with silence : YesDelete leading and trailing silent blocks : NoNull samples used in CRC calculations : NoUsed interface : Installed external ASPI interfaceGap handling : Appended to previous track

Used output format : Internal WAV RoutinesSample format : 44.100 Hz; 16 Bit; Stereo

TOC of the extracted CD

Track | Start | Length | Start sector | End sector --------------------------------------------------------- 1 | 0:00.00 | 2:58.11 | 0 | 13360 2 | 2:58.11 | 4:27.16 | 13361 | 33401 3 | 7:25.27 | 2:34.62 | 33402 | 45013 4 | 10:00.14 | 5:19.33 | 45014 | 68971 5 | 15:19.47 | 2:45.37 | 68972 | 81383 6 | 18:05.09 | 4:22.57 | 81384 | 101090 7 | 22:27.66 | 3:40.71 | 101091 | 117661 8 | 26:08.62 | 5:31.54 | 117662 | 142540 9 | 31:40.41 | 3:34.00 | 142541 | 158590 10 | 35:14.41 | 3:00.66 | 158591 | 172156 11 | 38:15.32 | 4:10.22 | 172157 | 190928 12 | 42:25.54 | 4:45.45 | 190929 | 212348 13 | 47:11.24 | 4:04.28 | 212349 | 230676

Track 1

Filename E:\8 - New Releases\Lisa Mann - Satisfied\01 - See You Next Tuesday.wav

Pre-gap length 0:00:02.00

Peak level 100.0 % Track quality 100.0 % Test CRC 12153EAD Copy CRC 12153EAD Track not present in AccurateRip database Copy OK

Track 2

Filename E:\8 - New Releases\Lisa Mann - Satisfied\02 - Gamblin'' Virgin Mary.wav

Pre-gap length 0:00:02.00

Peak level 100.0 % Track quality 100.0 % Test CRC AF5A36FF Copy CRC AF5A36FF Track not present in AccurateRip database Copy OK

Track 3

Filename E:\8 - New Releases\Lisa Mann - Satisfied\03 - Satisfied.wav

Pre-gap length 0:00:02.00

Peak level 100.0 % Track quality 100.0 % Test CRC D69E0C28 Copy CRC D69E0C28 Track not present in AccurateRip database Copy OK

Track 4

Filename E:\8 - New Releases\Lisa Mann - Satisfied\04 - Surrender To The Blues.wav

Pre-gap length 0:00:02.00

Peak level 100.0 % Track quality 99.9 % Test CRC 4D7FBDA7 Copy CRC 4D7FBDA7 Track not present in AccurateRip database Copy OK

Track 5

Filename E:\8 - New Releases\Lisa Mann - Satisfied\05 - Have I Told You I Love You Today.wav

Pre-gap length 0:00:02.00

Peak level 100.0 % Track quality 100.0 % Test CRC BA00BA6F Copy CRC BA00BA6F Track not present in AccurateRip database Copy OK

Track 6

Filename E:\8 - New Releases\Lisa Mann - Satisfied\06 - Always Nobody.wav

Pre-gap length 0:00:02.00

Peak level 100.0 % Track quality 100.0 % Test CRC 7E0D49DA Copy CRC 7E0D49DA Track not present in AccurateRip database Copy OK

Track 7

Filename E:\8 - New Releases\Lisa Mann - Satisfied\07 - Til The Wheels Come Off.wav

Pre-gap length 0:00:02.00

Peak level 100.0 % Track quality 100.0 % Test CRC AA566B2C Copy CRC AA566B2C Track not present in AccurateRip database Copy OK

Track 8

Filename E:\8 - New Releases\Lisa Mann - Satisfied\08 - Catch When I Fall.wav

Peak level 100.0 % Track quality 99.9 % Test CRC 7BE27D70 Copy CRC 7BE27D70 Track not present in AccurateRip database Copy OK

Track 9

Filename E:\8 - New Releases\Lisa Mann - Satisfied\09 - I Was Gonna.wav

Peak level 100.0 % Track quality 100.0 % Test CRC C195684E Copy CRC C195684E Track not present in AccurateRip database Copy OK

Track 10

Filename E:\8 - New Releases\Lisa Mann - Satisfied\10 - Alone.wav

Pre-gap length 0:00:02.15

Peak level 75.6 % Track quality 100.0 % Test CRC 9D656FEA Copy CRC 9D656FEA Track not present in AccurateRip database Copy OK

Track 11

Filename E:\8 - New Releases\Lisa Mann - Satisfied\11 - Don''t Touch Me.wav

Pre-gap length 0:00:02.00

Peak level 100.0 % Track quality 100.0 % Test CRC 972E2341 Copy CRC 972E2341 Track not present in AccurateRip database Copy OK

Track 12

Filename E:\8 - New Releases\Lisa Mann - Satisfied\12 - Kingd Of Black Gold.wav

Pre-gap length 0:00:02.00

Peak level 100.0 % Track quality 99.9 % Test CRC F7EE63F8 Copy CRC F7EE63F8 Track not present in AccurateRip database Copy OK

Track 13

Filename E:\8 - New Releases\Lisa Mann - Satisfied\13 - Doin'' Alright.wav

Pre-gap length 0:00:02.00

Peak level 100.0 % Track quality 100.0 % Test CRC 031E46F3 Copy CRC 031E46F3 Track not present in AccurateRip database Copy OK

None of the tracks are present in the AccurateRip database

No errors occurred

End of status report
REM GENRE BluesREM DATE 2012REM DISCID A80C030DREM COMMENT "ExactAudioCopy v0.99pb5"PERFORMER "Lisa Mann"TITLE "Satisfied"FILE "01 - See You Next Tuesday.wav" WAVE TRACK 01 AUDIO TITLE "See You Next Tuesday" PERFORMER "Lisa Mann" INDEX 01 00:00:00 TRACK 02 AUDIO TITLE "Gamblin'' Virgin Mary" PERFORMER "Lisa Mann" INDEX 00 02:56:11FILE "02 - Gamblin'' Virgin Mary.wav" WAVE INDEX 01 00:00:00 TRACK 03 AUDIO TITLE "Satisfied" PERFORMER "Lisa Mann" INDEX 00 04:25:16FILE "03 - Satisfied.wav" WAVE INDEX 01 00:00:00 TRACK 04 AUDIO TITLE "Surrender To The Blues" PERFORMER "Lisa Mann" INDEX 00 02:32:62FILE "04 - Surrender To The Blues.wav" WAVE INDEX 01 00:00:00 TRACK 05 AUDIO TITLE "Have I Told You I Love You Today" PERFORMER "Lisa Mann" INDEX 00 05:17:33FILE "05 - Have I Told You I Love You Today.wav" WAVE INDEX 01 00:00:00 TRACK 06 AUDIO TITLE "Always Nobody" PERFORMER "Lisa Mann" INDEX 00 02:43:37FILE "06 - Always Nobody.wav" WAVE INDEX 01 00:00:00 TRACK 07 AUDIO TITLE "Til The Wheels Come Off" PERFORMER "Lisa Mann" INDEX 00 04:20:57FILE "07 - Til The Wheels Come Off.wav" WAVE INDEX 01 00:00:00FILE "08 - Catch When I Fall.wav" WAVE TRACK 08 AUDIO TITLE "Catch When I Fall" PERFORMER "Lisa Mann" INDEX 01 00:00:00FILE "09 - I Was Gonna.wav" WAVE TRACK 09 AUDIO TITLE "I Was Gonna" PERFORMER "Lisa Mann" INDEX 01 00:00:00 TRACK 10 AUDIO TITLE "Alone" PERFORMER "Lisa Mann" INDEX 00 03:31:60FILE "10 - Alone.wav" WAVE INDEX 01 00:00:00 TRACK 11 AUDIO TITLE "Don''t Touch Me" PERFORMER "Lisa Mann" INDEX 00 02:58:66FILE "11 - Don''t Touch Me.wav" WAVE INDEX 01 00:00:00 TRACK 12 AUDIO TITLE "Kingd Of Black Gold" PERFORMER "Lisa Mann" INDEX 00 04:08:22FILE "12 - Kingd Of Black Gold.wav" WAVE INDEX 01 00:00:00 TRACK 13 AUDIO TITLE "Doin'' Alright" PERFORMER "Lisa Mann" INDEX 00 04:43:45FILE "13 - Doin'' Alright.wav" WAVE INDEX 01 00:00:00
[i]Lisa Mann - bass & vocals
Jeff Knudson - guitars
Michael Ballash - drums
Brian Harris - keys

Lloyd Jones - vocals & guitr on #6
Mitch Kashmar - harmonica on #12
...and many others</span>


Трекер:  [ 25-Дек-2013 15:28 ]

  

Скачать .torrent

Размер .torrent файла 14 KB


Размер: 317 MB
Хэш (hash) релиза: 4663ed0640b1b8dfeaa506600c18655b963594c6

Еще никто не оставлял запись к записи скачать торрент . Будь первым!

!Обратная связь