Скачать через торрент музыку бесплатно без регистрации torrent

Если у вас наблюдаются проблемы со скриншотами, переходом по ссылками, скачиванием торрентов - проблемы в блокировщике рекламы AdBlock. #хорошегоДня!


Статистика раздачи
Размер:  834 MB   |    Зарегистрирован:  3 года 9 месяцев   |    .torrent скачан:  86 раз   |   
Раздают:  1  
   
Загрузка...
 
Автор Сообщение

Galfimbul

avatar Galfimbul


♦ James Brown - The Complete James Brown Christmas {2CD} ♦

Жанр: Funk, Soul, Rhythm & Blues, Christmas
Носитель: CD
Год издания: 2010
Издатель (лейбл): Hip-O Select/Polydor
Номер по каталогу: B0014791-02
Аудиокодек: FLAC (*.flac)
Тип рипа: tracks+.cue
Битрейт аудио: lossless
Продолжительность: 02:16:58
Источник (релизер): artmuss
Наличие сканов в содержимом раздачи: да
Треклист:

01. Let''s Make Christmas Mean Something This Year [06:30]
02. Sweet Little Baby Boy (Parts 1 & 2) [05:16]
03. Merry Christmas, I Love You [02:33]
04. Signs Of Christmas [04:38]
05. The Christmas Song (Version 2) [02:48]
06. Merry Christmas Baby [03:55]
07. The Christmas Song (Version 1) [02:45]
08. Please Come Home For Christmas [03:24]
09. This Is My Lonely Christmas (Part 1) [03:03]
10. This Is My Lonely Christmas (Part 2) [04:49]
11. Christmas In Heaven [02:58]
12. Santa Claus Go Straight To The Ghetto [03:04]
13. Santa Claus, Santa Claus [04:06]
14. Believers Shall Enjoy (Non Believers Shall Suffer) [02:18]
15. Soulful Christmas [03:09]
16. Tit For Tat (Ain''t No Taking Back) [03:07]
17. Christmas Is Coming [02:40]
18. Say It Loud - I''m Black And I''m Proud (Parts 1 & 2) [04:49]
19. In The Middle [02:45]
20. Let''s Unite The Whole World At Christmas [02:46]
21. You Know It [02:23]
22. Santa Claus Gave Me A Brand New Start [03:49]
X Lossless Decoder version 20101212 (126.2)

XLD extraction logfile from 2011-01-05 13:38:57 +0100

James Brown / The Complete James Brown Christmas (Disc 1 of 2)

Used drive : HL-DT-ST DVDRW GA11N (revision KA16)

Ripper mode : CDParanoia III 10.2Disable audio cache : OK for the drive with a cache less than 2750KiBMake use of C2 pointers : NORead offset correction : 667Max retry count : 100Gap status : Analyzed, Appended

TOC of the extracted CD Track | Start | Length | Start sector | End sector --------------------------------------------------------- 1 | 00:00:00 | 06:30:52 | 0 | 29301 2 | 06:30:52 | 05:16:68 | 29302 | 53069 3 | 11:47:45 | 02:33:48 | 53070 | 64592 4 | 14:21:18 | 04:38:66 | 64593 | 85508 5 | 19:00:09 | 02:48:20 | 85509 | 98128 6 | 21:48:29 | 03:55:57 | 98129 | 115810 7 | 25:44:11 | 02:45:08 | 115811 | 128193 8 | 28:29:19 | 03:24:51 | 128194 | 143544 9 | 31:53:70 | 03:03:02 | 143545 | 157271 10 | 34:56:72 | 04:49:74 | 157272 | 179020 11 | 39:46:71 | 02:58:11 | 179021 | 192381 12 | 42:45:07 | 03:04:24 | 192382 | 206205 13 | 45:49:31 | 04:06:12 | 206206 | 224667 14 | 49:55:43 | 02:18:24 | 224668 | 235041 15 | 52:13:67 | 03:09:56 | 235042 | 249272 16 | 55:23:48 | 03:07:14 | 249273 | 263311 17 | 58:30:62 | 02:40:21 | 263312 | 275332 18 | 61:11:08 | 04:49:22 | 275333 | 297029 19 | 66:00:30 | 02:45:35 | 297030 | 309439 20 | 68:45:65 | 02:46:09 | 309440 | 321898 21 | 71:31:74 | 02:23:47 | 321899 | 332670 22 | 73:55:46 | 03:49:55 | 332671 | 349900

AccurateRip Summary Disc not found in AccurateRip DB.

All Tracks Album gain : -9.42 dB Peak : 1.000000 Statistics Read error : 0 Skipped (treated as error) : 0 Edge jitter error (maybe fixed) : 0 Atom jitter error (maybe fixed) : 0 Drift error (maybe fixed) : 0 Dropped bytes error (maybe fixed) : 0 Duplicated bytes error (maybe fixed) : 0

Track 01 Filename : /Users/rog/Desktop/ James Brown - The Complete James Brown Christmas (Disc 1 of 2) (2010) [FLAC (level 8)]/01 Let''s Make Christmas Mean Something This Year.flac /Users/rog/Desktop/ James Brown - The Complete James Brown Christmas (Disc 1 of 2) (2010) [LAME MP3 (CBR 320kbps)]/01 Let''s Make Christmas Mean Something This Year.mp3 Pre-gap length : 00:02:00

Track gain : -9.14 dB Peak : 1.000000 CRC32 hash (test run) : 9F5EC06B CRC32 hash : 9F5EC06B CRC32 hash (skip zero) : FA9DFDD6 AccurateRip signature : 609A4C94 ->Track not present in AccurateRip database. Statistics Read error : 0 Skipped (treated as error) : 0 Edge jitter error (maybe fixed) : 0 Atom jitter error (maybe fixed) : 0 Drift error (maybe fixed) : 0 Dropped bytes error (maybe fixed) : 0 Duplicated bytes error (maybe fixed) : 0 Inconsistency in error sectors : 0

Track 02 Filename : /Users/rog/Desktop/ James Brown - The Complete James Brown Christmas (Disc 1 of 2) (2010) [FLAC (level 8)]/02 Sweet Little Baby Boy (Parts 1 & 2).flac /Users/rog/Desktop/ James Brown - The Complete James Brown Christmas (Disc 1 of 2) (2010) [LAME MP3 (CBR 320kbps)]/02 Sweet Little Baby Boy (Parts 1 & 2).mp3 Pre-gap length : 00:02:07

Track gain : -8.75 dB Peak : 1.000000 CRC32 hash (test run) : B6B1418D CRC32 hash : B6B1418D CRC32 hash (skip zero) : A281E467 AccurateRip signature : E1D7A858 ->Track not present in AccurateRip database. Statistics Read error : 0 Skipped (treated as error) : 0 Edge jitter error (maybe fixed) : 0 Atom jitter error (maybe fixed) : 0 Drift error (maybe fixed) : 0 Dropped bytes error (maybe fixed) : 0 Duplicated bytes error (maybe fixed) : 0 Inconsistency in error sectors : 0

Track 03 Filename : /Users/rog/Desktop/ James Brown - The Complete James Brown Christmas (Disc 1 of 2) (2010) [FLAC (level 8)]/03 Merry Christmas, I Love You.flac /Users/rog/Desktop/ James Brown - The Complete James Brown Christmas (Disc 1 of 2) (2010) [LAME MP3 (CBR 320kbps)]/03 Merry Christmas, I Love You.mp3 Pre-gap length : 00:02:11

Track gain : -9.49 dB Peak : 1.000000 CRC32 hash (test run) : B23EBB6D CRC32 hash : B23EBB6D CRC32 hash (skip zero) : C3FECF92 AccurateRip signature : B0E48AEF ->Track not present in AccurateRip database. Statistics Read error : 0 Skipped (treated as error) : 0 Edge jitter error (maybe fixed) : 0 Atom jitter error (maybe fixed) : 0 Drift error (maybe fixed) : 0 Dropped bytes error (maybe fixed) : 0 Duplicated bytes error (maybe fixed) : 0 Inconsistency in error sectors : 0

Track 04 Filename : /Users/rog/Desktop/ James Brown - The Complete James Brown Christmas (Disc 1 of 2) (2010) [FLAC (level 8)]/04 Signs Of Christmas.flac /Users/rog/Desktop/ James Brown - The Complete James Brown Christmas (Disc 1 of 2) (2010) [LAME MP3 (CBR 320kbps)]/04 Signs Of Christmas.mp3 Pre-gap length : 00:02:04

Track gain : -8.63 dB Peak : 1.000000 CRC32 hash (test run) : 6DA01AB3 CRC32 hash : 6DA01AB3 CRC32 hash (skip zero) : ED6AE1EE AccurateRip signature : BE20C335 ->Track not present in AccurateRip database. Statistics Read error : 0 Skipped (treated as error) : 0 Edge jitter error (maybe fixed) : 0 Atom jitter error (maybe fixed) : 0 Drift error (maybe fixed) : 0 Dropped bytes error (maybe fixed) : 0 Duplicated bytes error (maybe fixed) : 0 Inconsistency in error sectors : 0

Track 05 Filename : /Users/rog/Desktop/ James Brown - The Complete James Brown Christmas (Disc 1 of 2) (2010) [FLAC (level 8)]/05 The Christmas Song (Version 2).flac /Users/rog/Desktop/ James Brown - The Complete James Brown Christmas (Disc 1 of 2) (2010) [LAME MP3 (CBR 320kbps)]/05 The Christmas Song (Version 2).mp3 Pre-gap length : 00:02:07

Track gain : -10.02 dB Peak : 1.000000 CRC32 hash (test run) : 1819F5A0 CRC32 hash : 1819F5A0 CRC32 hash (skip zero) : 695B1463 AccurateRip signature : AEAE7326 ->Track not present in AccurateRip database. Statistics Read error : 0 Skipped (treated as error) : 0 Edge jitter error (maybe fixed) : 0 Atom jitter error (maybe fixed) : 0 Drift error (maybe fixed) : 0 Dropped bytes error (maybe fixed) : 0 Duplicated bytes error (maybe fixed) : 0 Inconsistency in error sectors : 0

Track 06 Filename : /Users/rog/Desktop/ James Brown - The Complete James Brown Christmas (Disc 1 of 2) (2010) [FLAC (level 8)]/06 Merry Christmas Baby.flac /Users/rog/Desktop/ James Brown - The Complete James Brown Christmas (Disc 1 of 2) (2010) [LAME MP3 (CBR 320kbps)]/06 Merry Christmas Baby.mp3 Pre-gap length : 00:03:44

Track gain : -9.35 dB Peak : 1.000000 CRC32 hash (test run) : 39BA8AFD CRC32 hash : 39BA8AFD CRC32 hash (skip zero) : ACD20643 AccurateRip signature : 87F4C5A8 ->Track not present in AccurateRip database. Statistics Read error : 0 Skipped (treated as error) : 0 Edge jitter error (maybe fixed) : 0 Atom jitter error (maybe fixed) : 0 Drift error (maybe fixed) : 0 Dropped bytes error (maybe fixed) : 0 Duplicated bytes error (maybe fixed) : 0 Inconsistency in error sectors : 0

Track 07 Filename : /Users/rog/Desktop/ James Brown - The Complete James Brown Christmas (Disc 1 of 2) (2010) [FLAC (level 8)]/07 The Christmas Song (Version 1).flac /Users/rog/Desktop/ James Brown - The Complete James Brown Christmas (Disc 1 of 2) (2010) [LAME MP3 (CBR 320kbps)]/07 The Christmas Song (Version 1).mp3 Pre-gap length : 00:01:71

Track gain : -9.37 dB Peak : 1.000000 CRC32 hash (test run) : DE2AB08C CRC32 hash : DE2AB08C CRC32 hash (skip zero) : 24055036 AccurateRip signature : 9FBE69BD ->Track not present in AccurateRip database. Statistics Read error : 0 Skipped (treated as error) : 0 Edge jitter error (maybe fixed) : 0 Atom jitter error (maybe fixed) : 0 Drift error (maybe fixed) : 0 Dropped bytes error (maybe fixed) : 0 Duplicated bytes error (maybe fixed) : 0 Inconsistency in error sectors : 0

Track 08 Filename : /Users/rog/Desktop/ James Brown - The Complete James Brown Christmas (Disc 1 of 2) (2010) [FLAC (level 8)]/08 Please Come Home For Christmas.flac /Users/rog/Desktop/ James Brown - The Complete James Brown Christmas (Disc 1 of 2) (2010) [LAME MP3 (CBR 320kbps)]/08 Please Come Home For Christmas.mp3 Pre-gap length : 00:03:50

Track gain : -10.71 dB Peak : 1.000000 CRC32 hash (test run) : 51A8B8CE CRC32 hash : 51A8B8CE CRC32 hash (skip zero) : 531176B5 AccurateRip signature : D175BA28 ->Track not present in AccurateRip database. Statistics Read error : 0 Skipped (treated as error) : 0 Edge jitter error (maybe fixed) : 0 Atom jitter error (maybe fixed) : 0 Drift error (maybe fixed) : 0 Dropped bytes error (maybe fixed) : 0 Duplicated bytes error (maybe fixed) : 0 Inconsistency in error sectors : 0

Track 09 Filename : /Users/rog/Desktop/ James Brown - The Complete James Brown Christmas (Disc 1 of 2) (2010) [FLAC (level 8)]/09 This Is My Lonely Christmas (Part 1).flac /Users/rog/Desktop/ James Brown - The Complete James Brown Christmas (Disc 1 of 2) (2010) [LAME MP3 (CBR 320kbps)]/09 This Is My Lonely Christmas (Part 1).mp3 Pre-gap length : 00:03:29

Track gain : -9.68 dB Peak : 1.000000 CRC32 hash (test run) : 1EB896E3 CRC32 hash : 1EB896E3 CRC32 hash (skip zero) : 1824B66A AccurateRip signature : D151B2B1 ->Track not present in AccurateRip database. Statistics Read error : 0 Skipped (treated as error) : 0 Edge jitter error (maybe fixed) : 0 Atom jitter error (maybe fixed) : 0 Drift error (maybe fixed) : 0 Dropped bytes error (maybe fixed) : 0 Duplicated bytes error (maybe fixed) : 0 Inconsistency in error sectors : 0

Track 10 Filename : /Users/rog/Desktop/ James Brown - The Complete James Brown Christmas (Disc 1 of 2) (2010) [FLAC (level 8)]/10 This Is My Lonely Christmas (Part 2).flac /Users/rog/Desktop/ James Brown - The Complete James Brown Christmas (Disc 1 of 2) (2010) [LAME MP3 (CBR 320kbps)]/10 This Is My Lonely Christmas (Part 2).mp3 Pre-gap length : 00:03:27

Track gain : -8.77 dB Peak : 1.000000 CRC32 hash (test run) : 315854B0 CRC32 hash : 315854B0 CRC32 hash (skip zero) : A9DF596D AccurateRip signature : B4F62C51 ->Track not present in AccurateRip database. Statistics Read error : 0 Skipped (treated as error) : 0 Edge jitter error (maybe fixed) : 0 Atom jitter error (maybe fixed) : 0 Drift error (maybe fixed) : 0 Dropped bytes error (maybe fixed) : 0 Duplicated bytes error (maybe fixed) : 0 Inconsistency in error sectors : 0

Track 11 Filename : /Users/rog/Desktop/ James Brown - The Complete James Brown Christmas (Disc 1 of 2) (2010) [FLAC (level 8)]/11 Christmas In Heaven.flac /Users/rog/Desktop/ James Brown - The Complete James Brown Christmas (Disc 1 of 2) (2010) [LAME MP3 (CBR 320kbps)]/11 Christmas In Heaven.mp3 Pre-gap length : 00:03:63

Track gain : -8.73 dB Peak : 1.000000 CRC32 hash (test run) : 2452C0D5 CRC32 hash : 2452C0D5 CRC32 hash (skip zero) : CB486CC3 AccurateRip signature : 1D2CFCE0 ->Track not present in AccurateRip database. Statistics Read error : 0 Skipped (treated as error) : 0 Edge jitter error (maybe fixed) : 0 Atom jitter error (maybe fixed) : 0 Drift error (maybe fixed) : 0 Dropped bytes error (maybe fixed) : 0 Duplicated bytes error (maybe fixed) : 0 Inconsistency in error sectors : 0

Track 12 Filename : /Users/rog/Desktop/ James Brown - The Complete James Brown Christmas (Disc 1 of 2) (2010) [FLAC (level 8)]/12 Santa Claus Go Straight To The Ghetto.flac /Users/rog/Desktop/ James Brown - The Complete James Brown Christmas (Disc 1 of 2) (2010) [LAME MP3 (CBR 320kbps)]/12 Santa Claus Go Straight To The Ghetto.mp3 Pre-gap length : 00:04:44

Track gain : -9.75 dB Peak : 1.000000 CRC32 hash (test run) : 4D5D33C9 CRC32 hash : 4D5D33C9 CRC32 hash (skip zero) : D9CD8652 AccurateRip signature : 97DFBBD9 ->Track not present in AccurateRip database. Statistics Read error : 0 Skipped (treated as error) : 0 Edge jitter error (maybe fixed) : 0 Atom jitter error (maybe fixed) : 0 Drift error (maybe fixed) : 0 Dropped bytes error (maybe fixed) : 0 Duplicated bytes error (maybe fixed) : 0 Inconsistency in error sectors : 0

Track 13 Filename : /Users/rog/Desktop/ James Brown - The Complete James Brown Christmas (Disc 1 of 2) (2010) [FLAC (level 8)]/13 Santa Claus, Santa Claus.flac /Users/rog/Desktop/ James Brown - The Complete James Brown Christmas (Disc 1 of 2) (2010) [LAME MP3 (CBR 320kbps)]/13 Santa Claus, Santa Claus.mp3 Pre-gap length : 00:03:20

Track gain : -8.80 dB Peak : 1.000000 CRC32 hash (test run) : ABE8170D CRC32 hash : ABE8170D CRC32 hash (skip zero) : F8846491 AccurateRip signature : 614CFB7D ->Track not present in AccurateRip database. Statistics Read error : 0 Skipped (treated as error) : 0 Edge jitter error (maybe fixed) : 0 Atom jitter error (maybe fixed) : 0 Drift error (maybe fixed) : 0 Dropped bytes error (maybe fixed) : 0 Duplicated bytes error (maybe fixed) : 0 Inconsistency in error sectors : 0

Track 14 Filename : /Users/rog/Desktop/ James Brown - The Complete James Brown Christmas (Disc 1 of 2) (2010) [FLAC (level 8)]/14 Believers Shall Enjoy (Non Believers Shall Suffer).flac /Users/rog/Desktop/ James Brown - The Complete James Brown Christmas (Disc 1 of 2) (2010) [LAME MP3 (CBR 320kbps)]/14 Believers Shall Enjoy (Non Believers Shall Suffer).mp3 Pre-gap length : 00:03:28

Track gain : -7.96 dB Peak : 1.000000 CRC32 hash (test run) : 7F79177F CRC32 hash : 7F79177F CRC32 hash (skip zero) : 3D77E9F4 AccurateRip signature : 26305D29 ->Track not present in AccurateRip database. Statistics Read error : 0 Skipped (treated as error) : 0 Edge jitter error (maybe fixed) : 0 Atom jitter error (maybe fixed) : 0 Drift error (maybe fixed) : 0 Dropped bytes error (maybe fixed) : 0 Duplicated bytes error (maybe fixed) : 0 Inconsistency in error sectors : 0

Track 15 Filename : /Users/rog/Desktop/ James Brown - The Complete James Brown Christmas (Disc 1 of 2) (2010) [FLAC (level 8)]/15 Soulful Christmas.flac /Users/rog/Desktop/ James Brown - The Complete James Brown Christmas (Disc 1 of 2) (2010) [LAME MP3 (CBR 320kbps)]/15 Soulful Christmas.mp3 Pre-gap length : 00:03:41

Track gain : -10.60 dB Peak : 1.000000 CRC32 hash (test run) : 2E99BE83 CRC32 hash : 2E99BE83 CRC32 hash (skip zero) : DFD5355A AccurateRip signature : CB45246A ->Track not present in AccurateRip database. Statistics Read error : 0 Skipped (treated as error) : 0 Edge jitter error (maybe fixed) : 0 Atom jitter error (maybe fixed) : 0 Drift error (maybe fixed) : 0 Dropped bytes error (maybe fixed) : 0 Duplicated bytes error (maybe fixed) : 0 Inconsistency in error sectors : 0

Track 16 Filename : /Users/rog/Desktop/ James Brown - The Complete James Brown Christmas (Disc 1 of 2) (2010) [FLAC (level 8)]/16 Tit For Tat (Ain''t No Taking Back).flac /Users/rog/Desktop/ James Brown - The Complete James Brown Christmas (Disc 1 of 2) (2010) [LAME MP3 (CBR 320kbps)]/16 Tit For Tat (Ain''t No Taking Back).mp3 Pre-gap length : 00:03:15

Track gain : -9.97 dB Peak : 1.000000 CRC32 hash (test run) : 8ABA3E2C CRC32 hash : 8ABA3E2C CRC32 hash (skip zero) : F2223F5D AccurateRip signature : BFF15940 ->Track not present in AccurateRip database. Statistics Read error : 0 Skipped (treated as error) : 0 Edge jitter error (maybe fixed) : 0 Atom jitter error (maybe fixed) : 0 Drift error (maybe fixed) : 0 Dropped bytes error (maybe fixed) : 0 Duplicated bytes error (maybe fixed) : 0 Inconsistency in error sectors : 0

Track 17 Filename : /Users/rog/Desktop/ James Brown - The Complete James Brown Christmas (Disc 1 of 2) (2010) [FLAC (level 8)]/17 Christmas Is Coming.flac /Users/rog/Desktop/ James Brown - The Complete James Brown Christmas (Disc 1 of 2) (2010) [LAME MP3 (CBR 320kbps)]/17 Christmas Is Coming.mp3 Pre-gap length : 00:03:22

Track gain : -9.72 dB Peak : 1.000000 CRC32 hash (test run) : 11DC71AF CRC32 hash : 11DC71AF CRC32 hash (skip zero) : 4C0AF534 AccurateRip signature : CACD6786 ->Track not present in AccurateRip database. Statistics Read error : 0 Skipped (treated as error) : 0 Edge jitter error (maybe fixed) : 0 Atom jitter error (maybe fixed) : 0 Drift error (maybe fixed) : 0 Dropped bytes error (maybe fixed) : 0 Duplicated bytes error (maybe fixed) : 0 Inconsistency in error sectors : 0

Track 18 Filename : /Users/rog/Desktop/ James Brown - The Complete James Brown Christmas (Disc 1 of 2) (2010) [FLAC (level 8)]/18 Say It Loud - I''m Black And I''m Proud (Parts 1 & 2).flac /Users/rog/Desktop/ James Brown - The Complete James Brown Christmas (Disc 1 of 2) (2010) [LAME MP3 (CBR 320kbps)]/18 Say It Loud - I''m Black And I''m Proud (Parts 1 & 2).mp3 Pre-gap length : 00:02:22

Track gain : -9.96 dB Peak : 1.000000 CRC32 hash (test run) : 2D57545A CRC32 hash : 2D57545A CRC32 hash (skip zero) : D0BEF8E3 AccurateRip signature : C5C79250 ->Track not present in AccurateRip database. Statistics Read error : 0 Skipped (treated as error) : 0 Edge jitter error (maybe fixed) : 0 Atom jitter error (maybe fixed) : 0 Drift error (maybe fixed) : 0 Dropped bytes error (maybe fixed) : 0 Duplicated bytes error (maybe fixed) : 0 Inconsistency in error sectors : 0

Track 19 Filename : /Users/rog/Desktop/ James Brown - The Complete James Brown Christmas (Disc 1 of 2) (2010) [FLAC (level 8)]/19 In The Middle.flac /Users/rog/Desktop/ James Brown - The Complete James Brown Christmas (Disc 1 of 2) (2010) [LAME MP3 (CBR 320kbps)]/19 In The Middle.mp3 Pre-gap length : 00:03:35

Track gain : -7.98 dB Peak : 1.000000 CRC32 hash (test run) : 982EBB78 CRC32 hash : 982EBB78 CRC32 hash (skip zero) : AF023ABC AccurateRip signature : EDC14B98 ->Track not present in AccurateRip database. Statistics Read error : 0 Skipped (treated as error) : 0 Edge jitter error (maybe fixed) : 0 Atom jitter error (maybe fixed) : 0 Drift error (maybe fixed) : 0 Dropped bytes error (maybe fixed) : 0 Duplicated bytes error (maybe fixed) : 0 Inconsistency in error sectors : 0

Track 20 Filename : /Users/rog/Desktop/ James Brown - The Complete James Brown Christmas (Disc 1 of 2) (2010) [FLAC (level 8)]/20 Let''s Unite The Whole World At Christmas.flac /Users/rog/Desktop/ James Brown - The Complete James Brown Christmas (Disc 1 of 2) (2010) [LAME MP3 (CBR 320kbps)]/20 Let''s Unite The Whole World At Christmas.mp3 Pre-gap length : 00:03:36

Track gain : -8.44 dB Peak : 1.000000 CRC32 hash (test run) : 58E3CF87 CRC32 hash : 58E3CF87 CRC32 hash (skip zero) : D94E6158 AccurateRip signature : 9A2D886B ->Track not present in AccurateRip database. Statistics Read error : 0 Skipped (treated as error) : 0 Edge jitter error (maybe fixed) : 0 Atom jitter error (maybe fixed) : 0 Drift error (maybe fixed) : 0 Dropped bytes error (maybe fixed) : 0 Duplicated bytes error (maybe fixed) : 0 Inconsistency in error sectors : 0

Track 21 Filename : /Users/rog/Desktop/ James Brown - The Complete James Brown Christmas (Disc 1 of 2) (2010) [FLAC (level 8)]/21 You Know It.flac /Users/rog/Desktop/ James Brown - The Complete James Brown Christmas (Disc 1 of 2) (2010) [LAME MP3 (CBR 320kbps)]/21 You Know It.mp3 Pre-gap length : 00:03:40

Track gain : -9.85 dB Peak : 1.000000 CRC32 hash (test run) : 026EE0E6 CRC32 hash : 026EE0E6 CRC32 hash (skip zero) : CF4EBC5E AccurateRip signature : 848468CB ->Track not present in AccurateRip database. Statistics Read error : 0 Skipped (treated as error) : 0 Edge jitter error (maybe fixed) : 0 Atom jitter error (maybe fixed) : 0 Drift error (maybe fixed) : 0 Dropped bytes error (maybe fixed) : 0 Duplicated bytes error (maybe fixed) : 0 Inconsistency in error sectors : 0

Track 22 Filename : /Users/rog/Desktop/ James Brown - The Complete James Brown Christmas (Disc 1 of 2) (2010) [FLAC (level 8)]/22 Santa Claus Gave Me A Brand New Start.flac /Users/rog/Desktop/ James Brown - The Complete James Brown Christmas (Disc 1 of 2) (2010) [LAME MP3 (CBR 320kbps)]/22 Santa Claus Gave Me A Brand New Start.mp3 Pre-gap length : 00:03:58

Track gain : -8.75 dB Peak : 1.000000 CRC32 hash (test run) : 42DD10CA CRC32 hash : 42DD10CA CRC32 hash (skip zero) : 4EB0157C AccurateRip signature : 67367A79 ->Track not present in AccurateRip database. Statistics Read error : 0 Skipped (treated as error) : 0 Edge jitter error (maybe fixed) : 0 Atom jitter error (maybe fixed) : 0 Drift error (maybe fixed) : 0 Dropped bytes error (maybe fixed) : 0 Duplicated bytes error (maybe fixed) : 0 Inconsistency in error sectors : 0

No errors occurred

End of status report
TITLE "The Complete James Brown Christmas (Disc 1 of 2)"PERFORMER "James Brown"CATALOG 0602527499451REM GENRE "Holiday"REM DATE 2010REM DISCID 4C123916REM REPLAYGAIN_ALBUM_GAIN -9.42 dBREM REPLAYGAIN_ALBUM_PEAK 1.000000FILE "01 Let''s Make Christmas Mean Something This Year.wav" WAVE TRACK 01 AUDIO TITLE "Let''s Make Christmas Mean Something This Year" ISRC USPR36606016 REM REPLAYGAIN_TRACK_GAIN -9.14 dB REM REPLAYGAIN_TRACK_PEAK 1.000000 INDEX 01 00:00:00 TRACK 02 AUDIO TITLE "Sweet Little Baby Boy (Parts 1 & 2)" ISRC USPR36606019 REM REPLAYGAIN_TRACK_GAIN -8.75 dB REM REPLAYGAIN_TRACK_PEAK 1.000000 INDEX 00 06:28:45FILE "02 Sweet Little Baby Boy (Parts 1 & 2).wav" WAVE INDEX 01 00:00:00 TRACK 03 AUDIO TITLE "Merry Christmas, I Love You" ISRC USPR36606025 REM REPLAYGAIN_TRACK_GAIN -9.49 dB REM REPLAYGAIN_TRACK_PEAK 1.000000 INDEX 00 05:14:57FILE "03 Merry Christmas, I Love You.wav" WAVE INDEX 01 00:00:00 TRACK 04 AUDIO TITLE "Signs Of Christmas" ISRC USPR36606026 REM REPLAYGAIN_TRACK_GAIN -8.63 dB REM REPLAYGAIN_TRACK_PEAK 1.000000 INDEX 00 02:31:44FILE "04 Signs Of Christmas.wav" WAVE INDEX 01 00:00:00 TRACK 05 AUDIO TITLE "The Christmas Song (Version 2)" ISRC USUM70757207 REM REPLAYGAIN_TRACK_GAIN -10.02 dB REM REPLAYGAIN_TRACK_PEAK 1.000000 INDEX 00 04:36:59FILE "05 The Christmas Song (Version 2).wav" WAVE INDEX 01 00:00:00 TRACK 06 AUDIO TITLE "Merry Christmas Baby" ISRC USPR36606015 REM REPLAYGAIN_TRACK_GAIN -9.35 dB REM REPLAYGAIN_TRACK_PEAK 1.000000 INDEX 00 02:44:51FILE "06 Merry Christmas Baby.wav" WAVE INDEX 01 00:00:00 TRACK 07 AUDIO TITLE "The Christmas Song (Version 1)" ISRC USPR36806018 REM REPLAYGAIN_TRACK_GAIN -9.37 dB REM REPLAYGAIN_TRACK_PEAK 1.000000 INDEX 00 03:53:61FILE "07 The Christmas Song (Version 1).wav" WAVE INDEX 01 00:00:00 TRACK 08 AUDIO TITLE "Please Come Home For Christmas" ISRC USPR36606021 REM REPLAYGAIN_TRACK_GAIN -10.71 dB REM REPLAYGAIN_TRACK_PEAK 1.000000 INDEX 00 02:41:33FILE "08 Please Come Home For Christmas.wav" WAVE INDEX 01 00:00:00 TRACK 09 AUDIO TITLE "This Is My Lonely Christmas (Part 1)" ISRC USUM71023317 REM REPLAYGAIN_TRACK_GAIN -9.68 dB REM REPLAYGAIN_TRACK_PEAK 1.000000 INDEX 00 03:21:22FILE "09 This Is My Lonely Christmas (Part 1).wav" WAVE INDEX 01 00:00:00 TRACK 10 AUDIO TITLE "This Is My Lonely Christmas (Part 2)" ISRC USUM71023322 REM REPLAYGAIN_TRACK_GAIN -8.77 dB REM REPLAYGAIN_TRACK_PEAK 1.000000 INDEX 00 02:59:50FILE "10 This Is My Lonely Christmas (Part 2).wav" WAVE INDEX 01 00:00:00 TRACK 11 AUDIO TITLE "Christmas In Heaven" ISRC USPR36606027 REM REPLAYGAIN_TRACK_GAIN -8.73 dB REM REPLAYGAIN_TRACK_PEAK 1.000000 INDEX 00 04:46:11FILE "11 Christmas In Heaven.wav" WAVE INDEX 01 00:00:00 TRACK 12 AUDIO TITLE "Santa Claus Go Straight To The Ghetto" ISRC USPR36806014 REM REPLAYGAIN_TRACK_GAIN -9.75 dB REM REPLAYGAIN_TRACK_PEAK 1.000000 INDEX 00 02:53:42FILE "12 Santa Claus Go Straight To The Ghetto.wav" WAVE INDEX 01 00:00:00 TRACK 13 AUDIO TITLE "Santa Claus, Santa Claus" ISRC USPR36806024 REM REPLAYGAIN_TRACK_GAIN -8.80 dB REM REPLAYGAIN_TRACK_PEAK 1.000000 INDEX 00 03:01:04FILE "13 Santa Claus, Santa Claus.wav" WAVE INDEX 01 00:00:00 TRACK 14 AUDIO TITLE "Believers Shall Enjoy (Non Believers Shall Suffer)" ISRC USUM71023318 REM REPLAYGAIN_TRACK_GAIN -7.96 dB REM REPLAYGAIN_TRACK_PEAK 1.000000 INDEX 00 04:02:59FILE "14 Believers Shall Enjoy (Non Believers Shall Suffer).wav" WAVE INDEX 01 00:00:00 TRACK 15 AUDIO TITLE "Soulful Christmas" ISRC USPR36806017 REM REPLAYGAIN_TRACK_GAIN -10.60 dB REM REPLAYGAIN_TRACK_PEAK 1.000000 INDEX 00 02:14:58FILE "15 Soulful Christmas.wav" WAVE INDEX 01 00:00:00 TRACK 16 AUDIO TITLE "Tit For Tat (Ain''t No Taking Back)" ISRC USPR36806023 REM REPLAYGAIN_TRACK_GAIN -9.97 dB REM REPLAYGAIN_TRACK_PEAK 1.000000 INDEX 00 03:06:41FILE "16 Tit For Tat (Ain''t No Taking Back).wav" WAVE INDEX 01 00:00:00 TRACK 17 AUDIO TITLE "Christmas Is Coming" ISRC USUM71023319 REM REPLAYGAIN_TRACK_GAIN -9.72 dB REM REPLAYGAIN_TRACK_PEAK 1.000000 INDEX 00 03:03:67FILE "17 Christmas Is Coming.wav" WAVE INDEX 01 00:00:00 TRACK 18 AUDIO TITLE "Say It Loud - I''m Black And I''m Proud (Parts 1 & 2)" ISRC USPR36809005 REM REPLAYGAIN_TRACK_GAIN -9.96 dB REM REPLAYGAIN_TRACK_PEAK 1.000000 INDEX 00 02:37:74FILE "18 Say It Loud - I''m Black And I''m Proud (Parts 1 & 2).wav" WAVE INDEX 01 00:00:00 TRACK 19 AUDIO TITLE "In The Middle" ISRC USWWW0135582 REM REPLAYGAIN_TRACK_GAIN -7.98 dB REM REPLAYGAIN_TRACK_PEAK 1.000000 INDEX 00 04:45:62FILE "19 In The Middle.wav" WAVE INDEX 01 00:00:00 TRACK 20 AUDIO TITLE "Let''s Unite The Whole World At Christmas" ISRC USPR36806013 REM REPLAYGAIN_TRACK_GAIN -8.44 dB REM REPLAYGAIN_TRACK_PEAK 1.000000 INDEX 00 02:41:74FILE "20 Let''s Unite The Whole World At Christmas.wav" WAVE INDEX 01 00:00:00 TRACK 21 AUDIO TITLE "You Know It" ISRC USUM71023320 REM REPLAYGAIN_TRACK_GAIN -9.85 dB REM REPLAYGAIN_TRACK_PEAK 1.000000 INDEX 00 02:42:44FILE "21 You Know It.wav" WAVE INDEX 01 00:00:00 TRACK 22 AUDIO TITLE "Santa Claus Gave Me A Brand New Start" ISRC USUM71023321 REM REPLAYGAIN_TRACK_GAIN -8.75 dB REM REPLAYGAIN_TRACK_PEAK 1.000000 INDEX 00 02:19:64FILE "22 Santa Claus Gave Me A Brand New Start.wav" WAVE INDEX 01 00:00:00
[b]Треклист:

[b]
01. Hey America [03:36]
02. A Lonely Little Boy Around One Little Christmas Toy [04:02]
03. Go Power At Christmas Time [03:12]
04. Christmas Is Love [06:05]
05. Santa Claus Is Definitely Here To Stay [04:23]
06. My Rapp [06:02]
07. I''m Your Christmas Friend, Don''t Be Hungry [03:10]
08. Merry Christmas My Baby And A Very, Very Happy New Year [03:59]
09. It''s Christmas Time (Part 1) [03:11]
10. It''s Christmas Time (Part 2) [03:16]
11. You Know It [02:53]
12. Believers Shall Enjoy (Non Believers Shall Suffer) [02:42]
13. Hey America (Sing Along Version) [03:47]
14. Santa Claus Is Definitely Here To Stay (Single Version) [04:24]
15. Santa Claus Is Definitely Here To Stay (Sing Along Version) [04:24]
X Lossless Decoder version 20101212 (126.2)

XLD extraction logfile from 2011-01-05 15:02:12 +0100

James Brown / The Complete James Brown Christmas (Disc 2 of 2)

Used drive : HL-DT-ST DVDRW GA11N (revision KA16)

Ripper mode : CDParanoia III 10.2Disable audio cache : OK for the drive with a cache less than 2750KiBMake use of C2 pointers : NORead offset correction : 667Max retry count : 100Gap status : Analyzed, Appended

TOC of the extracted CD Track | Start | Length | Start sector | End sector --------------------------------------------------------- 1 | 00:00:00 | 03:36:67 | 0 | 16266 2 | 03:36:67 | 04:02:53 | 16267 | 34469 3 | 07:39:45 | 03:12:35 | 34470 | 48904 4 | 10:52:05 | 06:05:17 | 48905 | 76296 5 | 16:57:22 | 04:23:74 | 76297 | 96095 6 | 21:21:21 | 06:02:19 | 96096 | 123264 7 | 27:23:40 | 03:10:74 | 123265 | 137588 8 | 30:34:39 | 03:59:08 | 137589 | 155521 9 | 34:33:47 | 03:11:24 | 155522 | 169870 10 | 37:44:71 | 03:16:01 | 169871 | 184571 11 | 41:00:72 | 02:53:04 | 184572 | 197550 12 | 43:54:01 | 02:42:68 | 197551 | 209768 13 | 46:36:69 | 03:47:38 | 209769 | 226831 14 | 50:24:32 | 04:24:64 | 226832 | 246695 15 | 54:49:21 | 04:24:08 | 246696 | 266503

AccurateRip Summary Disc not found in AccurateRip DB.

All Tracks Album gain : -8.86 dB Peak : 1.000000 Statistics Read error : 0 Skipped (treated as error) : 0 Edge jitter error (maybe fixed) : 0 Atom jitter error (maybe fixed) : 0 Drift error (maybe fixed) : 0 Dropped bytes error (maybe fixed) : 0 Duplicated bytes error (maybe fixed) : 0

Track 01 Filename : /Users/rog/Desktop/ James Brown - The Complete James Brown Christmas (Disc 2 of 2) (2010) [FLAC (level 8)]/01 Hey America.flac /Users/rog/Desktop/ James Brown - The Complete James Brown Christmas (Disc 2 of 2) (2010) [LAME MP3 (CBR 320kbps)]/01 Hey America.mp3 Pre-gap length : 00:02:00

Track gain : -9.58 dB Peak : 0.890930 CRC32 hash (test run) : 8A0199F9 CRC32 hash : 8A0199F9 CRC32 hash (skip zero) : 5B8B893C AccurateRip signature : EBFA85CB ->Track not present in AccurateRip database. Statistics Read error : 0 Skipped (treated as error) : 0 Edge jitter error (maybe fixed) : 0 Atom jitter error (maybe fixed) : 0 Drift error (maybe fixed) : 0 Dropped bytes error (maybe fixed) : 0 Duplicated bytes error (maybe fixed) : 0 Inconsistency in error sectors : 0

Track 02 Filename : /Users/rog/Desktop/ James Brown - The Complete James Brown Christmas (Disc 2 of 2) (2010) [FLAC (level 8)]/02 A Lonely Little Boy Around One Little Christmas Toy.flac /Users/rog/Desktop/ James Brown - The Complete James Brown Christmas (Disc 2 of 2) (2010) [LAME MP3 (CBR 320kbps)]/02 A Lonely Little Boy Around One Little Christmas Toy.mp3 Pre-gap length : 00:02:48

Track gain : -9.29 dB Peak : 0.943909 CRC32 hash (test run) : 07C1AC4E CRC32 hash : 07C1AC4E CRC32 hash (skip zero) : 722CE496 AccurateRip signature : C8D14A00 ->Track not present in AccurateRip database. Statistics Read error : 0 Skipped (treated as error) : 0 Edge jitter error (maybe fixed) : 0 Atom jitter error (maybe fixed) : 0 Drift error (maybe fixed) : 0 Dropped bytes error (maybe fixed) : 0 Duplicated bytes error (maybe fixed) : 0 Inconsistency in error sectors : 0

Track 03 Filename : /Users/rog/Desktop/ James Brown - The Complete James Brown Christmas (Disc 2 of 2) (2010) [FLAC (level 8)]/03 Go Power At Christmas Time.flac /Users/rog/Desktop/ James Brown - The Complete James Brown Christmas (Disc 2 of 2) (2010) [LAME MP3 (CBR 320kbps)]/03 Go Power At Christmas Time.mp3 Pre-gap length : 00:02:68

Track gain : -10.28 dB Peak : 0.890930 CRC32 hash (test run) : 77DA6A77 CRC32 hash : 77DA6A77 CRC32 hash (skip zero) : 8E0D6367 AccurateRip signature : 1717EAC9 ->Track not present in AccurateRip database. Statistics Read error : 0 Skipped (treated as error) : 0 Edge jitter error (maybe fixed) : 0 Atom jitter error (maybe fixed) : 0 Drift error (maybe fixed) : 0 Dropped bytes error (maybe fixed) : 0 Duplicated bytes error (maybe fixed) : 0 Inconsistency in error sectors : 0

Track 04 Filename : /Users/rog/Desktop/ James Brown - The Complete James Brown Christmas (Disc 2 of 2) (2010) [FLAC (level 8)]/04 Christmas Is Love.flac /Users/rog/Desktop/ James Brown - The Complete James Brown Christmas (Disc 2 of 2) (2010) [LAME MP3 (CBR 320kbps)]/04 Christmas Is Love.mp3 Pre-gap length : 00:02:61

Track gain : -9.54 dB Peak : 0.943909 CRC32 hash (test run) : 0AD609EF CRC32 hash : 0AD609EF CRC32 hash (skip zero) : A2BFAFBF AccurateRip signature : D95819A2 ->Track not present in AccurateRip database. Statistics Read error : 0 Skipped (treated as error) : 0 Edge jitter error (maybe fixed) : 0 Atom jitter error (maybe fixed) : 0 Drift error (maybe fixed) : 0 Dropped bytes error (maybe fixed) : 0 Duplicated bytes error (maybe fixed) : 0 Inconsistency in error sectors : 0

Track 05 Filename : /Users/rog/Desktop/ James Brown - The Complete James Brown Christmas (Disc 2 of 2) (2010) [FLAC (level 8)]/05 Santa Claus Is Definitely Here To Stay.flac /Users/rog/Desktop/ James Brown - The Complete James Brown Christmas (Disc 2 of 2) (2010) [LAME MP3 (CBR 320kbps)]/05 Santa Claus Is Definitely Here To Stay.mp3 Pre-gap length : 00:05:69

Track gain : -8.81 dB Peak : 0.943909 CRC32 hash (test run) : 8E430E57 CRC32 hash : 8E430E57 CRC32 hash (skip zero) : E9EC3E44 AccurateRip signature : EE5D9660 ->Track not present in AccurateRip database. Statistics Read error : 0 Skipped (treated as error) : 0 Edge jitter error (maybe fixed) : 0 Atom jitter error (maybe fixed) : 0 Drift error (maybe fixed) : 0 Dropped bytes error (maybe fixed) : 0 Duplicated bytes error (maybe fixed) : 0 Inconsistency in error sectors : 0

Track 06 Filename : /Users/rog/Desktop/ James Brown - The Complete James Brown Christmas (Disc 2 of 2) (2010) [FLAC (level 8)]/06 My Rapp.flac /Users/rog/Desktop/ James Brown - The Complete James Brown Christmas (Disc 2 of 2) (2010) [LAME MP3 (CBR 320kbps)]/06 My Rapp.mp3 Pre-gap length : 00:02:55

Track gain : -3.17 dB Peak : 0.943909 CRC32 hash (test run) : B86D440B CRC32 hash : B86D440B CRC32 hash (skip zero) : 4066D986 AccurateRip signature : DBB1A5D4 ->Track not present in AccurateRip database. Statistics Read error : 0 Skipped (treated as error) : 0 Edge jitter error (maybe fixed) : 0 Atom jitter error (maybe fixed) : 0 Drift error (maybe fixed) : 0 Dropped bytes error (maybe fixed) : 0 Duplicated bytes error (maybe fixed) : 0 Inconsistency in error sectors : 0

Track 07 Filename : /Users/rog/Desktop/ James Brown - The Complete James Brown Christmas (Disc 2 of 2) (2010) [FLAC (level 8)]/07 I''m Your Christmas Friend, Don''t Be Hungry.flac /Users/rog/Desktop/ James Brown - The Complete James Brown Christmas (Disc 2 of 2) (2010) [LAME MP3 (CBR 320kbps)]/07 I''m Your Christmas Friend, Don''t Be Hungry.mp3 Pre-gap length : 00:02:63

Track gain : -10.05 dB Peak : 0.890930 CRC32 hash (test run) : 2E902CB7 CRC32 hash : 2E902CB7 CRC32 hash (skip zero) : 222107F4 AccurateRip signature : 7C9CE889 ->Track not present in AccurateRip database. Statistics Read error : 0 Skipped (treated as error) : 0 Edge jitter error (maybe fixed) : 0 Atom jitter error (maybe fixed) : 0 Drift error (maybe fixed) : 0 Dropped bytes error (maybe fixed) : 0 Duplicated bytes error (maybe fixed) : 0 Inconsistency in error sectors : 0

Track 08 Filename : /Users/rog/Desktop/ James Brown - The Complete James Brown Christmas (Disc 2 of 2) (2010) [FLAC (level 8)]/08 Merry Christmas My Baby And A Very, Very Happy New Year.flac /Users/rog/Desktop/ James Brown - The Complete James Brown Christmas (Disc 2 of 2) (2010) [LAME MP3 (CBR 320kbps)]/08 Merry Christmas My Baby And A Very, Very Happy New Year.mp3 Pre-gap length : 00:02:56

Track gain : -6.33 dB Peak : 1.000000 CRC32 hash (test run) : 8640134F CRC32 hash : 8640134F CRC32 hash (skip zero) : 947917B4 AccurateRip signature : 66274F02 ->Track not present in AccurateRip database. Statistics Read error : 0 Skipped (treated as error) : 0 Edge jitter error (maybe fixed) : 0 Atom jitter error (maybe fixed) : 0 Drift error (maybe fixed) : 0 Dropped bytes error (maybe fixed) : 0 Duplicated bytes error (maybe fixed) : 0 Inconsistency in error sectors : 0

Track 09 Filename : /Users/rog/Desktop/ James Brown - The Complete James Brown Christmas (Disc 2 of 2) (2010) [FLAC (level 8)]/09 It''s Christmas Time (Part 1).flac /Users/rog/Desktop/ James Brown - The Complete James Brown Christmas (Disc 2 of 2) (2010) [LAME MP3 (CBR 320kbps)]/09 It''s Christmas Time (Part 1).mp3 Pre-gap length : 00:04:44

Track gain : -6.61 dB Peak : 0.965973 CRC32 hash (test run) : AE66BE95 CRC32 hash : AE66BE95 CRC32 hash (skip zero) : 849EF76A AccurateRip signature : 5BBBB2B4 ->Track not present in AccurateRip database. Statistics Read error : 0 Skipped (treated as error) : 0 Edge jitter error (maybe fixed) : 0 Atom jitter error (maybe fixed) : 0 Drift error (maybe fixed) : 0 Dropped bytes error (maybe fixed) : 0 Duplicated bytes error (maybe fixed) : 0 Inconsistency in error sectors : 0

Track 10 Filename : /Users/rog/Desktop/ James Brown - The Complete James Brown Christmas (Disc 2 of 2) (2010) [FLAC (level 8)]/10 It''s Christmas Time (Part 2).flac /Users/rog/Desktop/ James Brown - The Complete James Brown Christmas (Disc 2 of 2) (2010) [LAME MP3 (CBR 320kbps)]/10 It''s Christmas Time (Part 2).mp3

Track gain : -6.34 dB Peak : 0.965973 CRC32 hash (test run) : B610CE69 CRC32 hash : B610CE69 CRC32 hash (skip zero) : 3F7EAE85 AccurateRip signature : 1C48BE9C ->Track not present in AccurateRip database. Statistics Read error : 0 Skipped (treated as error) : 0 Edge jitter error (maybe fixed) : 0 Atom jitter error (maybe fixed) : 0 Drift error (maybe fixed) : 0 Dropped bytes error (maybe fixed) : 0 Duplicated bytes error (maybe fixed) : 0 Inconsistency in error sectors : 0

Track 11 Filename : /Users/rog/Desktop/ James Brown - The Complete James Brown Christmas (Disc 2 of 2) (2010) [FLAC (level 8)]/11 You Know It.flac /Users/rog/Desktop/ James Brown - The Complete James Brown Christmas (Disc 2 of 2) (2010) [LAME MP3 (CBR 320kbps)]/11 You Know It.mp3 Pre-gap length : 00:01:43

Track gain : -9.06 dB Peak : 1.000000 CRC32 hash (test run) : F2C0CB27 CRC32 hash : F2C0CB27 CRC32 hash (skip zero) : 1F232C69 AccurateRip signature : 291BEFE2 ->Track not present in AccurateRip database. Statistics Read error : 0 Skipped (treated as error) : 0 Edge jitter error (maybe fixed) : 0 Atom jitter error (maybe fixed) : 0 Drift error (maybe fixed) : 0 Dropped bytes error (maybe fixed) : 0 Duplicated bytes error (maybe fixed) : 0 Inconsistency in error sectors : 0

Track 12 Filename : /Users/rog/Desktop/ James Brown - The Complete James Brown Christmas (Disc 2 of 2) (2010) [FLAC (level 8)]/12 Believers Shall Enjoy (Non Believers Shall Suffer).flac /Users/rog/Desktop/ James Brown - The Complete James Brown Christmas (Disc 2 of 2) (2010) [LAME MP3 (CBR 320kbps)]/12 Believers Shall Enjoy (Non Believers Shall Suffer).mp3 Pre-gap length : 00:01:66

Track gain : -8.93 dB Peak : 1.000000 CRC32 hash (test run) : 4759017F CRC32 hash : 4759017F CRC32 hash (skip zero) : DDA59BFB AccurateRip signature : 6BFC14FB ->Track not present in AccurateRip database. Statistics Read error : 0 Skipped (treated as error) : 0 Edge jitter error (maybe fixed) : 0 Atom jitter error (maybe fixed) : 0 Drift error (maybe fixed) : 0 Dropped bytes error (maybe fixed) : 0 Duplicated bytes error (maybe fixed) : 0 Inconsistency in error sectors : 0

Track 13 Filename : /Users/rog/Desktop/ James Brown - The Complete James Brown Christmas (Disc 2 of 2) (2010) [FLAC (level 8)]/13 Hey America (Sing Along Version).flac /Users/rog/Desktop/ James Brown - The Complete James Brown Christmas (Disc 2 of 2) (2010) [LAME MP3 (CBR 320kbps)]/13 Hey America (Sing Along Version).mp3 Pre-gap length : 00:03:57

Track gain : -9.69 dB Peak : 1.000000 CRC32 hash (test run) : 3FAEEE5A CRC32 hash : 3FAEEE5A CRC32 hash (skip zero) : B19AE6B1 AccurateRip signature : 45101F56 ->Track not present in AccurateRip database. Statistics Read error : 0 Skipped (treated as error) : 0 Edge jitter error (maybe fixed) : 0 Atom jitter error (maybe fixed) : 0 Drift error (maybe fixed) : 0 Dropped bytes error (maybe fixed) : 0 Duplicated bytes error (maybe fixed) : 0 Inconsistency in error sectors : 0

Track 14 Filename : /Users/rog/Desktop/ James Brown - The Complete James Brown Christmas (Disc 2 of 2) (2010) [FLAC (level 8)]/14 Santa Claus Is Definitely Here To Stay (Single Version).flac /Users/rog/Desktop/ James Brown - The Complete James Brown Christmas (Disc 2 of 2) (2010) [LAME MP3 (CBR 320kbps)]/14 Santa Claus Is Definitely Here To Stay (Single Version).mp3 Pre-gap length : 00:02:49

Track gain : -8.46 dB Peak : 1.000000 CRC32 hash (test run) : 598DAA0E CRC32 hash : 598DAA0E CRC32 hash (skip zero) : A89447FD AccurateRip signature : DFADB3B1 ->Track not present in AccurateRip database. Statistics Read error : 0 Skipped (treated as error) : 0 Edge jitter error (maybe fixed) : 0 Atom jitter error (maybe fixed) : 0 Drift error (maybe fixed) : 0 Dropped bytes error (maybe fixed) : 0 Duplicated bytes error (maybe fixed) : 0 Inconsistency in error sectors : 0

Track 15 Filename : /Users/rog/Desktop/ James Brown - The Complete James Brown Christmas (Disc 2 of 2) (2010) [FLAC (level 8)]/15 Santa Claus Is Definitely Here To Stay (Sing Along Version).flac /Users/rog/Desktop/ James Brown - The Complete James Brown Christmas (Disc 2 of 2) (2010) [LAME MP3 (CBR 320kbps)]/15 Santa Claus Is Definitely Here To Stay (Sing Along Version).mp3 Pre-gap length : 00:03:00

Track gain : -8.18 dB Peak : 1.000000 CRC32 hash (test run) : 7B694034 CRC32 hash : 7B694034 CRC32 hash (skip zero) : 69159674 AccurateRip signature : 53072BCF ->Track not present in AccurateRip database. Statistics Read error : 0 Skipped (treated as error) : 0 Edge jitter error (maybe fixed) : 0 Atom jitter error (maybe fixed) : 0 Drift error (maybe fixed) : 0 Dropped bytes error (maybe fixed) : 0 Duplicated bytes error (maybe fixed) : 0 Inconsistency in error sectors : 0

No errors occurred

End of status report
TITLE "The Complete James Brown Christmas (Disc 2 of 2)"PERFORMER "James Brown"CATALOG 0602527499468REM DATE "2010"REM DISCNUMBER 2REM TOTALDISCS 2REM DISCID D30DE10FREM REPLAYGAIN_ALBUM_GAIN -8.86 dBREM REPLAYGAIN_ALBUM_PEAK 1.000000FILE "01 Hey America.wav" WAVE TRACK 01 AUDIO TITLE "Hey America" ISRC USUM70954403 REM REPLAYGAIN_TRACK_GAIN -9.58 dB REM REPLAYGAIN_TRACK_PEAK 0.890930 INDEX 01 00:00:00 TRACK 02 AUDIO TITLE "A Lonely Little Boy Around One Little Christmas Toy" ISRC USUM71023323 REM REPLAYGAIN_TRACK_GAIN -9.29 dB REM REPLAYGAIN_TRACK_PEAK 0.943909 INDEX 00 03:34:19FILE "02 A Lonely Little Boy Around One Little Christmas Toy.wav" WAVE INDEX 01 00:00:00 TRACK 03 AUDIO TITLE "Go Power At Christmas Time" ISRC USPR37006012 REM REPLAYGAIN_TRACK_GAIN -10.28 dB REM REPLAYGAIN_TRACK_PEAK 0.890930 INDEX 00 03:59:60FILE "03 Go Power At Christmas Time.wav" WAVE INDEX 01 00:00:00 TRACK 04 AUDIO TITLE "Christmas Is Love" ISRC USPR37006020 REM REPLAYGAIN_TRACK_GAIN -9.54 dB REM REPLAYGAIN_TRACK_PEAK 0.943909 INDEX 00 03:09:49FILE "04 Christmas Is Love.wav" WAVE INDEX 01 00:00:00 TRACK 05 AUDIO TITLE "Santa Claus Is Definitely Here To Stay" ISRC USPR37006022 REM REPLAYGAIN_TRACK_GAIN -8.81 dB REM REPLAYGAIN_TRACK_PEAK 0.943909 INDEX 00 05:59:23FILE "05 Santa Claus Is Definitely Here To Stay.wav" WAVE INDEX 01 00:00:00 TRACK 06 AUDIO TITLE "My Rapp" ISRC USUM71023324 REM REPLAYGAIN_TRACK_GAIN -3.17 dB REM REPLAYGAIN_TRACK_PEAK 0.943909 INDEX 00 04:21:19FILE "06 My Rapp.wav" WAVE INDEX 01 00:00:00 TRACK 07 AUDIO TITLE "I''m Your Christmas Friend, Don''t Be Hungry" ISRC USUM71023325 REM REPLAYGAIN_TRACK_GAIN -10.05 dB REM REPLAYGAIN_TRACK_PEAK 0.890930 INDEX 00 05:59:31FILE "07 I''m Your Christmas Friend, Don''t Be Hungry.wav" WAVE INDEX 01 00:00:00 TRACK 08 AUDIO TITLE "Merry Christmas My Baby And A Very, Very Happy New Year" ISRC USUM71023326 REM REPLAYGAIN_TRACK_GAIN -6.33 dB REM REPLAYGAIN_TRACK_PEAK 1.000000 INDEX 00 03:08:18FILE "08 Merry Christmas My Baby And A Very, Very Happy New Year.wav" WAVE INDEX 01 00:00:00 TRACK 09 AUDIO TITLE "It''s Christmas Time (Part 1)" ISRC USUM70844807 REM REPLAYGAIN_TRACK_GAIN -6.61 dB REM REPLAYGAIN_TRACK_PEAK 0.965973 INDEX 00 03:54:39FILE "09 It''s Christmas Time (Part 1).wav" WAVE INDEX 01 00:00:00FILE "10 It''s Christmas Time (Part 2).wav" WAVE TRACK 10 AUDIO TITLE "It''s Christmas Time (Part 2)" ISRC USUM70844808 REM REPLAYGAIN_TRACK_GAIN -6.34 dB REM REPLAYGAIN_TRACK_PEAK 0.965973 INDEX 01 00:00:00 TRACK 11 AUDIO TITLE "You Know It" ISRC USUM70800295 REM REPLAYGAIN_TRACK_GAIN -9.06 dB REM REPLAYGAIN_TRACK_PEAK 1.000000 INDEX 00 03:14:33FILE "11 You Know It.wav" WAVE INDEX 01 00:00:00 TRACK 12 AUDIO TITLE "Believers Shall Enjoy (Non Believers Shall Suffer)" ISRC USUM70800274 REM REPLAYGAIN_TRACK_GAIN -8.93 dB REM REPLAYGAIN_TRACK_PEAK 1.000000 INDEX 00 02:51:13FILE "12 Believers Shall Enjoy (Non Believers Shall Suffer).wav" WAVE INDEX 01 00:00:00 TRACK 13 AUDIO TITLE "Hey America (Sing Along Version)" ISRC USUM70954404 REM REPLAYGAIN_TRACK_GAIN -9.69 dB REM REPLAYGAIN_TRACK_PEAK 1.000000 INDEX 00 02:39:11FILE "13 Hey America (Sing Along Version).wav" WAVE INDEX 01 00:00:00 TRACK 14 AUDIO TITLE "Santa Claus Is Definitely Here To Stay (Single Version)" ISRC USUM71023327 REM REPLAYGAIN_TRACK_GAIN -8.46 dB REM REPLAYGAIN_TRACK_PEAK 1.000000 INDEX 00 03:44:64FILE "14 Santa Claus Is Definitely Here To Stay (Single Version).wav" WAVE INDEX 01 00:00:00 TRACK 15 AUDIO TITLE "Santa Claus Is Definitely Here To Stay (Sing Along Version)" ISRC USUM71023328 REM REPLAYGAIN_TRACK_GAIN -8.18 dB REM REPLAYGAIN_TRACK_PEAK 1.000000 INDEX 00 04:21:64FILE "15 Santa Claus Is Definitely Here To Stay (Sing Along Version).wav" WAVE INDEX 01 00:00:00


Трекер:  [ 25-Дек-2013 13:08 ]

  

Скачать .torrent

Размер .torrent файла 20 KB


Размер: 834 MB
Хэш (hash) релиза: 963143cb1a694caab1a7508dfb3761788c61f9e1

Еще никто не оставлял запись к записи скачать торрент . Будь первым!

!Обратная связь