Скачать через торрент музыку бесплатно без регистрации torrent

Если у вас наблюдаются проблемы со скриншотами, переходом по ссылками, скачиванием торрентов - проблемы в блокировщике рекламы AdBlock. #хорошегоДня!


Статистика раздачи
Размер:  383 MB   |    Зарегистрирован:  3 года 9 месяцев   |    .torrent скачан:  79 раз   |   
Раздают:  1  
   
Загрузка...
 
Автор Сообщение

Galfimbul

avatar Galfimbul


Bobby Rodriguez - A Latin Jazz Christmas

Жанр: Bop, Latin Jazz, Christmas
Носитель: CD
Страна-производитель диска: США
Год издания: 1997
Издатель (лейбл): JVC Music Inc.
Номер по каталогу: JMI-7504-2
Аудиокодек: FLAC (*.flac)
Тип рипа: tracks+.cue
Битрейт аудио: lossless
Продолжительность: 62:48
Источник (релизер): hosewater (what)
Наличие сканов в содержимом раздачи: нет

Треклист:
01. Feliz Navidad (Cha Cha) (4:53)
02. Have Yourself a Merry Little Christmas (Salsa) (3:57)
03. Es La Navidad (Salsa) (4:50)
04. Santa Claus Is Coming to Town (Cha Cha) (5:25)
05. The Christmas Song (Bolero) (4:42)
06. Jingle Bells (Samba) (4:55)
07. Deck the Halls (Merengue) (3:31)
08. White Christmas (Salsa) (4:35)
09. Silent Night (Bolero) (4:40)
10. Oh Christmas Tree (Salsa) (4:06)
11. We Three Kings (6/8) (7:13)
12. Silver Bells (Cha Cha) (5:08)
13. It''s Time for Christmas (Salsa) (4:53)
Exact Audio Copy V1.0 beta 3 from 29. August 2011

EAC extraction logfile from 28. February 2013, 18:21

Bobby Rodriguez / A Latin Jazz Christmas

Used drive : HL-DT-STBDDVDRW GGC-H20N Adapter: 3 ID: 0

Read mode : SecureUtilize accurate stream : YesDefeat audio cache : YesMake use of C2 pointers : No

Read offset correction : 667Overread into Lead-In and Lead-Out : NoFill up missing offset samples with silence : YesDelete leading and trailing silent blocks : NoNull samples used in CRC calculations : YesUsed interface : Native Win32 interface for Win NT & 2000Gap handling : Appended to previous track

Used output format : User Defined EncoderSelected bitrate : 1024 kBit/sQuality : HighAdd ID3 tag : NoCommand line compressor : C:\Program Files (x86)\Exact Audio Copy\Flac\flac.exeAdditional command line options : -8 -V -T "ARTIST=%artist%" -T "TITLE=%title%" -T "ALBUM=%albumtitle%" -T "DATE=%year%" -T "TRACKNUMBER=%tracknr%" -T "GENRE=%genre%" -T "PERFORMER=%albuminterpret%" -T "COMPOSER=%composer%" %haslyrics%--tag-from-file=LYRICS="%lyricsfile%"%haslyrics% -T "ALBUMARTIST=%albumartist%" -T "DISCNUMBER=%cdnumber%" -T "TOTALDISCS=%totalcds%" -T "TOTALTRACKS=%numtracks%" -T "COMMENT=%comment%" %source% -o %dest%

TOC of the extracted CD

Track | Start | Length | Start sector | End sector --------------------------------------------------------- 1 | 0:00.00 | 4:53.12 | 0 | 21986 2 | 4:53.12 | 3:57.30 | 21987 | 39791 3 | 8:50.42 | 4:50.25 | 39792 | 61566 4 | 13:40.67 | 5:25.10 | 61567 | 85951 5 | 19:06.02 | 4:42.33 | 85952 | 107134 6 | 23:48.35 | 4:55.22 | 107135 | 129281 7 | 28:43.57 | 3:30.38 | 129282 | 145069 8 | 32:14.20 | 4:34.62 | 145070 | 165681 9 | 36:49.07 | 4:40.03 | 165682 | 186684 10 | 41:29.10 | 4:05.52 | 186685 | 205111 11 | 45:34.62 | 7:12.60 | 205112 | 237571 12 | 52:47.47 | 5:08.23 | 237572 | 260694 13 | 57:55.70 | 4:52.57 | 260695 | 282651

Track 1

Filename E:\EAC Rips\01 - Feliz Navidad (Cha Cha).wav

Pre-gap length 0:00:02.00

Peak level 96.8 % Extraction speed 3.9 X Track quality 99.9 % Test CRC 78058ECE Copy CRC 78058ECE Track not present in AccurateRip database Copy OK

Track 2

Filename E:\EAC Rips\02 - Have Yourself A Merry Little Christmas (Salsa).wav

Peak level 96.5 % Extraction speed 4.1 X Track quality 99.9 % Test CRC 472402DE Copy CRC 472402DE Track not present in AccurateRip database Copy OK

Track 3

Filename E:\EAC Rips\03 - Es La Navidad (Salsa).wav

Peak level 95.8 % Extraction speed 5.6 X Track quality 100.0 % Test CRC 3DBF2E96 Copy CRC 3DBF2E96 Track not present in AccurateRip database Copy OK

Track 4

Filename E:\EAC Rips\04 - Santa Claus Is Coming To Town.wav

Pre-gap length 0:00:01.46

Peak level 96.2 % Extraction speed 6.1 X Track quality 100.0 % Test CRC 7B625701 Copy CRC 7B625701 Track not present in AccurateRip database Copy OK

Track 5

Filename E:\EAC Rips\05 - The Christmas Song (Bolero).wav

Pre-gap length 0:00:01.46

Peak level 92.3 % Extraction speed 6.2 X Track quality 100.0 % Test CRC CB2D62E5 Copy CRC CB2D62E5 Track not present in AccurateRip database Copy OK

Track 6

Filename E:\EAC Rips\06 - Jingle Bells (Samba).wav

Peak level 96.9 % Extraction speed 6.9 X Track quality 100.0 % Test CRC FB8C079A Copy CRC FB8C079A Track not present in AccurateRip database Copy OK

Track 7

Filename E:\EAC Rips\07 - Deck The Halls (Merengue).wav

Peak level 96.0 % Extraction speed 5.5 X Track quality 99.9 % Test CRC 59DA24DB Copy CRC 59DA24DB Track not present in AccurateRip database Copy OK

Track 8

Filename E:\EAC Rips\08 - White Christmas (Salsa).wav

Pre-gap length 0:00:01.60

Peak level 95.0 % Extraction speed 7.2 X Track quality 100.0 % Test CRC E28D0A39 Copy CRC E28D0A39 Track not present in AccurateRip database Copy OK

Track 9

Filename E:\EAC Rips\09 - Silent Night (Bolero).wav

Peak level 86.1 % Extraction speed 7.4 X Track quality 100.0 % Test CRC DBC1BDBD Copy CRC DBC1BDBD Track not present in AccurateRip database Copy OK

Track 10

Filename E:\EAC Rips\10 - Oh Christmas Tree (Salsa).wav

Peak level 95.7 % Extraction speed 6.4 X Track quality 99.9 % Test CRC 4163ED21 Copy CRC 4163ED21 Track not present in AccurateRip database Copy OK

Track 11

Filename E:\EAC Rips\11 - We Three Kings (6,8).wav

Pre-gap length 0:00:01.26

Peak level 96.3 % Extraction speed 8.4 X Track quality 100.0 % Test CRC F23E5F41 Copy CRC F23E5F41 Track not present in AccurateRip database Copy OK

Track 12

Filename E:\EAC Rips\12 - Silver Bells (Cha Cha).wav

Peak level 95.9 % Extraction speed 8.5 X Track quality 100.0 % Test CRC A2D1C1FB Copy CRC A2D1C1FB Track not present in AccurateRip database Copy OK

Track 13

Filename E:\EAC Rips\13 - It''s Time For Christmas (Salsa).wav

Peak level 95.8 % Extraction speed 8.7 X Track quality 100.0 % Test CRC 8D9A5626 Copy CRC 8D9A5626 Track not present in AccurateRip database Copy OK

None of the tracks are present in the AccurateRip database

No errors occurred

End of status report

---- CUETools DB Plugin V2.1.3

[CTDB TOCID: fvjm0IpiUVUKUvfPHa.78WYNpIs-] found, Submit result: fvjm0IpiUVUKUvfPHa.78WYNpIs- has been confirmed[da53c885] (1/1) Accurately ripped

==== Log checksum 91B3BA1212BAC52F3E884E32335C53DFAC8ED9CEAA20CC46214B36641B69D78D ====
REM GENRE JazzREM DATE 1997REM DISCID B00EB80DREM COMMENT "ExactAudioCopy v1.0b3"PERFORMER "Bobby Rodriguez"TITLE "A Latin Jazz Christmas"FILE "01 - Feliz Navidad (Cha Cha).wav" WAVE TRACK 01 AUDIO TITLE "Feliz Navidad (Cha Cha)" PERFORMER "Bobby Rodriguez" INDEX 01 00:00:00FILE "02 - Have Yourself a Merry Little Christmas (Salsa).wav" WAVE TRACK 02 AUDIO TITLE "Have Yourself a Merry Little Christmas (Salsa)" PERFORMER "Bobby Rodriguez" INDEX 01 00:00:00FILE "03 - Es La Navidad (Salsa).wav" WAVE TRACK 03 AUDIO TITLE "Es La Navidad (Salsa)" PERFORMER "Bobby Rodriguez" INDEX 01 00:00:00 TRACK 04 AUDIO TITLE "Santa Claus Is Coming to Town (Cha Cha)" PERFORMER "Bobby Rodriguez" INDEX 00 04:48:65FILE "04 - Santa Claus Is Coming to Town (Cha Cha).wav" WAVE INDEX 01 00:00:00 TRACK 05 AUDIO TITLE "The Christmas Song (Bolero)" PERFORMER "Bobby Rodriguez" INDEX 00 05:23:50FILE "05 - The Christmas Song (Bolero).wav" WAVE INDEX 01 00:00:00FILE "06 - Jingle Bells (Samba).wav" WAVE TRACK 06 AUDIO TITLE "Jingle Bells (Samba)" PERFORMER "Bobby Rodriguez" INDEX 01 00:00:00FILE "07 - Deck the Halls (Merengue).wav" WAVE TRACK 07 AUDIO TITLE "Deck the Halls (Merengue)" PERFORMER "Bobby Rodriguez" INDEX 01 00:00:00 TRACK 08 AUDIO TITLE "White Christmas (Salsa)" PERFORMER "Bobby Rodriguez" INDEX 00 03:28:68FILE "08 - White Christmas (Salsa).wav" WAVE INDEX 01 00:00:00FILE "09 - Silent Night (Bolero).wav" WAVE TRACK 09 AUDIO TITLE "Silent Night (Bolero)" PERFORMER "Bobby Rodriguez" INDEX 01 00:00:00FILE "10 - Oh Christmas Tree (Salsa).wav" WAVE TRACK 10 AUDIO TITLE "Oh Christmas Tree (Salsa)" PERFORMER "Bobby Rodriguez" INDEX 01 00:00:00 TRACK 11 AUDIO TITLE "We Three Kings (6/8)" PERFORMER "Bobby Rodriguez" INDEX 00 04:04:32FILE "11 - We Three Kings (6-8).wav" WAVE INDEX 01 00:00:00FILE "12 - Silver Bells (Cha Cha).wav" WAVE TRACK 12 AUDIO TITLE "Silver Bells (Cha Cha)" PERFORMER "Bobby Rodriguez" INDEX 01 00:00:00FILE "13 - It''s Time for Christmas (Salsa).wav" WAVE TRACK 13 AUDIO TITLE "It''s Time for Christmas (Salsa)" PERFORMER "Bobby Rodriguez" INDEX 01 00:00:00
[CUETools log; Date: 25.12.2013 5:20:41; Version: 2.1.4][CTDB TOCID: fvjm0IpiUVUKUvfPHa.78WYNpIs-] found.Track | CTDB Status 1 | (2/2) Accurately ripped 2 | (2/2) Accurately ripped 3 | (2/2) Accurately ripped 4 | (2/2) Accurately ripped 5 | (2/2) Accurately ripped 6 | (2/2) Accurately ripped 7 | (2/2) Accurately ripped 8 | (2/2) Accurately ripped 9 | (2/2) Accurately ripped 10 | (2/2) Accurately ripped 11 | (2/2) Accurately ripped 12 | (2/2) Accurately ripped 13 | (2/2) Accurately ripped[AccurateRip ID: 001d6fdf-012764fa-b00eb80d] disk not present in database.

Track Peak [ CRC32 ] [W/O NULL] [ LOG ] -- 96,9 [727410AB] [089C7757] 01 96,8 [78058ECE] [2E24625D] CRC32 02 96,5 [472402DE] [A0E40D86] CRC32 03 95,8 [3DBF2E96] [7597EE10] CRC32 04 96,2 [7B625701] [FF0D960F] CRC32 05 92,3 [CB2D62E5] [E49EFEF7] CRC32 06 96,9 [FB8C079A] [E3E3CAF1] CRC32 07 96,0 [59DA24DB] [33F416A1] CRC32 08 95,0 [E28D0A39] [CA7539F8] CRC32 09 86,1 [DBC1BDBD] [59B1F5A3] CRC32 10 95,7 [4163ED21] [DFFC4A2F] CRC32 11 96,3 [F23E5F41] [BEAF878A] CRC32 12 95,9 [A2D1C1FB] [44397EE9] CRC32 13 95,8 [8D9A5626] [DF9EDA3C] CRC32
Dr. Bobby''s dream came true in 1997 when he recorded his now classic "A LatinJazz Christmas" album. He was the first artist in history to record a complete Christmas album in "clave."
Bobby Rodriguez - trumpet, arranger
Sergei Kasimov - piano
Jonathan Pintoff - bass
Russ Henry - drums
David Romero - congas, bongos, shekere
Freddie Crespo - congas, bongos, timbales
Richie Gajate Garcia - guira
Счастливого Рождества! / Merry Christmas!

Трекер:  [ 25-Дек-2013 12:35 ]

  

Скачать .torrent

Размер .torrent файла 16 KB


Размер: 383 MB
Хэш (hash) релиза: b956adda1fb018a7148a04eda2f698f721421001

Еще никто не оставлял запись к записи скачать торрент . Будь первым!

!Обратная связь