Скачать через торрент музыку бесплатно без регистрации torrent

Если у вас наблюдаются проблемы со скриншотами, переходом по ссылками, скачиванием торрентов - проблемы в блокировщике рекламы AdBlock. #хорошегоДня!


Статистика раздачи
Размер:  201 MB   |    Зарегистрирован:  3 года 9 месяцев   |    .torrent скачан:  87 раз   |   
Раздают:  1  
   
Загрузка...
 
Автор Сообщение

Galfimbul

avatar Galfimbul


Manfred Dierkes / It''s About Time

Жанр: Jazz / Instrumental / Solo Guitar
Носитель: CD
Страна-производитель диска: Germany
Год издания: 1999
Издатель (лейбл): Acoustic Music Records
Номер по каталогу: 319.1176.242
Страна: Germany
Аудиокодек: WavPack (*.wv)
Тип рипа: iso.wv
Битрейт аудио: lossless
Продолжительность: 00:53:55
Источник (релизер): автор раздачи
Наличие сканов в содержимом раздачи: да
Треклист:
1. Splanky
2. Choro
3. Dolphin Dance
4. Prelude to a kiss
5. Walzer
6. Donna Lee
7. Astors Rumba
8. Lester leaps in
9. Key Largo
10. Billies Bounce
11. As time goes by
12. Skylark
13. It''s about time
14. My Romance
15. Das Mädchen auf der Mauer
16. Alone together
Exact Audio Copy V1.0 beta 3 from 29. August 2011

Отчёт EAC об извлечении, выполненном 24. декабря 2013, 11:23

Manfred Dierkes / It''s About Time

Дисковод: hp DVDRAM GT30L Adapter: 2 ID: 0

Режим чтения : ДостоверностьИспользование точного потока : ДаОтключение кэша аудио : ДаИспользование указателей C2 : Нет

Коррекция смещения при чтении : 103Способность читать области Lead-in и Lead-out : НетЗаполнение пропущенных сэмплов тишиной : ДаУдаление блоков с тишиной в начале и конце : НетПри вычислениях CRC использовались нулевые сэмплы : ДаИнтерфейс : Встроенный Win32-интерфейс для Win NT/2000

Выходной формат : Пользовательский кодировщикВыбранный битрейт : 128 kBit/sКачество : ВысокийДобавление ID3-тега : НетУтилита сжатия : C:\Program Files (x86)\wavpack-4.70.0\wavpack.exeДополнительные параметры : -hm -w "Year=%year%" -w "Genre=%genre%" %source% %dest%

TOC извлечённого CD

Трек | Старт | Длительность | Начальный сектор | Конечный сектор --------------------------------------------------------------------- 1 | 0:00.00 | 2:41.08 | 0 | 12082 2 | 2:41.08 | 2:34.20 | 12083 | 23652 3 | 5:15.28 | 3:48.72 | 23653 | 40824 4 | 9:04.25 | 5:21.34 | 40825 | 64933 5 | 14:25.59 | 3:58.47 | 64934 | 82830 6 | 18:24.31 | 1:53.23 | 82831 | 91328 7 | 20:17.54 | 3:58.69 | 91329 | 109247 8 | 24:16.48 | 2:47.37 | 109248 | 121809 9 | 27:04.10 | 4:08.43 | 121810 | 140452 10 | 31:12.53 | 2:08.13 | 140453 | 150065 11 | 33:20.66 | 3:25.10 | 150066 | 165450 12 | 36:46.01 | 4:32.56 | 165451 | 185906 13 | 41:18.57 | 3:32.55 | 185907 | 201861 14 | 44:51.37 | 3:05.06 | 201862 | 215742 15 | 47:56.43 | 1:10.73 | 215743 | 221065 16 | 49:07.41 | 4:47.56 | 221066 | 242646

Характеристики диапазона извлечения и сообщения об ошибках

Выбранный диапазон

Имя файла C:\Users\Gera Tochkin\Music\Manfred Dierkes\It''s about Time\Manfred Dierkes - It''s About Time.wav

Пиковый уровень 100.0 % Скорость извлечения 2.1 X Качество диапазона 100.0 % CRC теста 0E81FD23 CRC копии 0E81FD23 Копирование... OK

Ошибок не произошло

AccurateRip: сводка

Трек 1 : извлечено точно (доверие 3) [28AFC3CF] (AR v2)Трек 2 : извлечено точно (доверие 3) [35B0582F] (AR v2)Трек 3 : извлечено точно (доверие 3) [87B11506] (AR v2)Трек 4 : извлечено точно (доверие 3) [A0B34BC7] (AR v2)Трек 5 : извлечено точно (доверие 3) [B5BAD945] (AR v2)Трек 6 : извлечено точно (доверие 3) [6D3FA9A3] (AR v2)Трек 7 : извлечено точно (доверие 3) [22731AE6] (AR v2)Трек 8 : извлечено точно (доверие 3) [9784DF4B] (AR v2)Трек 9 : извлечено точно (доверие 3) [6243A919] (AR v2)Трек 10 : извлечено точно (доверие 3) [58984EC8] (AR v2)Трек 11 : извлечено точно (доверие 3) [651F5FDA] (AR v2)Трек 12 : извлечено точно (доверие 3) [419BA66A] (AR v2)Трек 13 : извлечено точно (доверие 3) [2427C943] (AR v2)Трек 14 : извлечено точно (доверие 3) [51FC9897] (AR v2)Трек 15 : извлечено точно (доверие 3) [69628B1C] (AR v2)Трек 16 : извлечено точно (доверие 3) [A19E313A] (AR v2)

Все треки извлечены точно

Конец отчёта

==== Контрольная сумма отчёта 4E5D6A8029346073804B0157963F5FFE2FCE0C960A8936A020823A7007C95DF5 ====
REM GENRE JazzREM DATE 1999REM DISCID E80CA310REM COMMENT "ExactAudioCopy v1.0b3"PERFORMER "Manfred Dierkes"TITLE "It''s About Time"FILE "Manfred Dierkes - It''s About Time.wv" WAVE TRACK 01 AUDIO TITLE "Splanky" PERFORMER "Manfred Dierkes" INDEX 01 00:00:00 TRACK 02 AUDIO TITLE "Choro" PERFORMER "Manfred Dierkes" INDEX 00 02:38:08 INDEX 01 02:41:08 TRACK 03 AUDIO TITLE "Dolphin Dance" PERFORMER "Manfred Dierkes" INDEX 00 05:12:22 INDEX 01 05:15:28 TRACK 04 AUDIO TITLE "Prelude to a kiss" PERFORMER "Manfred Dierkes" INDEX 00 09:00:25 INDEX 01 09:04:25 TRACK 05 AUDIO TITLE "Walzer" PERFORMER "Manfred Dierkes" INDEX 00 14:21:13 INDEX 01 14:25:59 TRACK 06 AUDIO TITLE "Donna Lee" PERFORMER "Manfred Dierkes" INDEX 00 18:19:68 INDEX 01 18:24:31 TRACK 07 AUDIO TITLE "Astors Rumba" PERFORMER "Manfred Dierkes" INDEX 00 20:12:63 INDEX 01 20:17:54 TRACK 08 AUDIO TITLE "Lester leaps in" PERFORMER "Manfred Dierkes" INDEX 00 24:12:40 INDEX 01 24:16:48 TRACK 09 AUDIO TITLE "Key Largo" PERFORMER "Manfred Dierkes" INDEX 00 26:59:32 INDEX 01 27:04:10 TRACK 10 AUDIO TITLE "Billies Bounce" PERFORMER "Manfred Dierkes" INDEX 00 31:08:22 INDEX 01 31:12:53 TRACK 11 AUDIO TITLE "As time goes by" PERFORMER "Manfred Dierkes" INDEX 00 33:16:29 INDEX 01 33:20:66 TRACK 12 AUDIO TITLE "Skylark" PERFORMER "Manfred Dierkes" INDEX 00 36:41:14 INDEX 01 36:46:01 TRACK 13 AUDIO TITLE "It''s about time" PERFORMER "Manfred Dierkes" INDEX 00 41:15:45 INDEX 01 41:18:57 TRACK 14 AUDIO TITLE "My Romance" PERFORMER "Manfred Dierkes" INDEX 00 44:46:43 INDEX 01 44:51:37 TRACK 15 AUDIO TITLE "Das Mädchen auf der Mauer" PERFORMER "Manfred Dierkes" INDEX 00 47:51:64 INDEX 01 47:56:43 TRACK 16 AUDIO TITLE "Alone together" PERFORMER "Manfred Dierkes" INDEX 00 49:02:32 INDEX 01 49:07:41
Manfred Dierkes - "Supreme" Archtop Guitar by Stefan Hahl
Artwork
Manfred Dierkes - It''s About Time.cue
Manfred Dierkes - It''s About Time.log
Manfred Dierkes - It''s About Time.wv


Трекер:  [ 25-Дек-2013 11:59 ]

  

Скачать .torrent

Размер .torrent файла 16 KB


Размер: 201 MB
Хэш (hash) релиза: e6793795f6dd2e080ae80334f02d9eb8bc219308

Еще никто не оставлял запись к записи скачать торрент . Будь первым!

!Обратная связь