Скачать через торрент музыку VA - Cest La Vie - 2011, бесплатно без регистрации torrent

Если у вас наблюдаются проблемы со скриншотами, переходом по ссылками, скачиванием торрентов - проблемы в блокировщике рекламы AdBlock. #хорошегоДня!


Статистика раздачи
Размер:  1.76 GB   |    Зарегистрирован:  3 года 7 месяцев   |    .torrent скачан:  276 раз   |   
Раздают:  2  
   
Загрузка...
 
Автор Сообщение

Galfimbul

avatar Galfimbul


VA - C''est La Vie

Жанр: New Age, Instrumental, Chillout, Smooth Jazz
Год издания: 2011
Издатель (лейбл): Jingo
Аудиокодек: FLAC (*.flac)
Тип рипа: image+.cue
Битрейт аудио: lossless
Продолжительность: 06:00:00
Источник (релизер): internet
Наличие сканов в содержимом раздачи: нет
01. Dancing With Paul
02. Midnight Bossa
03. Slow Rumba
04. Puerto De Soller
05. Coccopazzo
06. Puerto De Banus
07. Hawaii
08. Lombasa Island
09. Garbrielle
10. Midnight Lullaby
AUDIOCHECKER v2.0 beta (build 457) - by Dester - opdester@freemail.hu
~~~~~~~~~~~~~~~~~~~~~~~~~~~~~~~~~~
-=== НЕ РЕДАКТИРУЙТЕ ЭТОТ ФАЙЛ! ===-

Путь: ...\Spanish Flame Mario Berger

1 -=- Spanish Flame Mario Berger.flac -=- CDDA (99%)

144910356
REM DISCID 880D1A0A
REM COMMENT "ExactAudioCopy v0.99pb4"
PERFORMER "C''est La Vie"
TITLE "Spanish Flame Mario Berger"
FILE "Spanish Flame Mario Berger.wav" WAVE
TRACK 01 AUDIO
TITLE "Dancing With Paul"
PERFORMER "C''est La Vie"
INDEX 01 00:00:00
TRACK 02 AUDIO
TITLE "Midnight Bosse"
PERFORMER "C''est La Vie"
INDEX 00 04:32:00
INDEX 01 04:36:62
TRACK 03 AUDIO
TITLE "Slow Rumba"
PERFORMER "C''est La Vie"
INDEX 00 08:45:40
INDEX 01 08:49:32
TRACK 04 AUDIO
TITLE "Puerto De Soller"
PERFORMER "C''est La Vie"
INDEX 00 15:15:70
INDEX 01 15:20:55
TRACK 05 AUDIO
TITLE "Coccopazzo"
PERFORMER "C''est La Vie"
INDEX 00 20:48:33
INDEX 01 20:55:42
TRACK 06 AUDIO
TITLE "Puerto De Banus"
PERFORMER "C''est La Vie"
INDEX 00 28:45:65
INDEX 01 28:50:52
TRACK 07 AUDIO
TITLE "Hawaii"
PERFORMER "C''est La Vie"
INDEX 00 33:07:31
INDEX 01 33:12:47
TRACK 08 AUDIO
TITLE "Lombasa Island"
PERFORMER "C''est La Vie"
INDEX 00 39:45:38
INDEX 01 39:51:27
TRACK 09 AUDIO
TITLE "Garielle"
PERFORMER "C''est La Vie"
INDEX 00 44:32:51
INDEX 01 44:38:25
TRACK 10 AUDIO
TITLE "Midnighe Lullaby"
PERFORMER "C''est La Vie"
INDEX 00 50:37:05
INDEX 01 50:42:40
01. Amanda''s Visit
02. Locomotive To Paradise
03. Dancing In Deep Waters
04. Hotel Oriental
05. Kakadoo''s Bossa
06. Life In The Keys
07. Emerald River
08. Bamboo
09. Turtle Island
10. Coconut Grove
11. Snail''s slowfox
12. Archie''s View
AUDIOCHECKER v2.0 beta (build 457) - by Dester - opdester@freemail.hu
~~~~~~~~~~~~~~~~~~~~~~~~~~~~~~~~~~
-=== НЕ РЕДАКТИРУЙТЕ ЭТОТ ФАЙЛ! ===-

Путь: ...\Felix Pando - Wonderful Forest

1 -=- Wonderful Forest.flac -=- CDDA (100%)

195661268
REM DISCID BC0D360C
REM COMMENT "ExactAudioCopy v0.99pb4"
PERFORMER "新世纪"
TITLE "美丽人生VOL2-无忧林-Wonderful Forest Felix Pando"
FILE "新世纪 - 美丽人生VOL2-无忧林-Wonderful Forest Felix Pando .wav" WAVE
TRACK 01 AUDIO
TITLE "Amanda''s Visit 阿曼达的来临"
PERFORMER "新世纪"
INDEX 01 00:00:00
TRACK 02 AUDIO
TITLE "Locomotive To Paradise 开往伊甸园"
PERFORMER "新世纪"
INDEX 01 03:37:62
TRACK 03 AUDIO
TITLE "Dancing In Deep Waters 水中独舞"
PERFORMER "新世纪"
INDEX 01 09:56:45
TRACK 04 AUDIO
TITLE "Hotel Oriental 东方旅馆"
PERFORMER "新世纪"
INDEX 01 14:57:07
TRACK 05 AUDIO
TITLE "Kakadoo''s Bossa卡卡多的披萨"
PERFORMER "新世纪"
INDEX 01 19:26:54
TRACK 06 AUDIO
TITLE "Life In The Keys 开启生活"
PERFORMER "新世纪"
INDEX 01 24:44:72
TRACK 07 AUDIO
TITLE "Emerald River 翠玉河"
PERFORMER "新世纪"
INDEX 00 30:44:17
INDEX 01 30:46:47
TRACK 08 AUDIO
TITLE "Bamboo 翠竹"
PERFORMER "新世纪"
INDEX 01 35:22:15
TRACK 09 AUDIO
TITLE "Turtle Island 龟岛"
PERFORMER "新世纪"
INDEX 01 39:51:40
TRACK 10 AUDIO
TITLE "Coconut Groove 椰林"
PERFORMER "新世纪"
INDEX 01 43:25:17
TRACK 11 AUDIO
TITLE "Snail''s Slowfox 跳孤步舞的蜗牛"
PERFORMER "新世纪"
INDEX 01 48:39:05
TRACK 12 AUDIO
TITLE "Archie''s View 眺望"
PERFORMER "美丽人生VOL2-无忧林-Wonderful Forest Felix Pando"
INDEX 01 52:25:45
01. Love Overture
02. I Still In Love With You
03. Growing
04. The Stars In E
05. Peace Of Mind
06. If You''d Kiss Me
07. Sweet Sunday Morning
08. The Touch Of Your Hand
09. Longing
10. Inner Soul
11. Trusting You
AUDIOCHECKER v2.0 beta (build 457) - by Dester - opdester@freemail.hu
~~~~~~~~~~~~~~~~~~~~~~~~~~~~~~~~~~
-=== НЕ РЕДАКТИРУЙТЕ ЭТОТ ФАЙЛ! ===-

Путь: ...\Flying Room Bert Matschat

1 -=- Flying Room Bert Matschat.flac -=- CDDA (100%)

251476516
REM DISCID 980CBF0B
REM COMMENT "ExactAudioCopy v0.99pb4"
PERFORMER "C''est La Vie"
TITLE "Flying Room Bert Matschat"
FILE "Flying Room Bert Matschat.wav" WAVE
TRACK 01 AUDIO
TITLE "Love Overture"
PERFORMER "C''est La Vie"
INDEX 01 00:00:00
TRACK 02 AUDIO
TITLE "I''m Still In Love With You"
PERFORMER "C''est La Vie"
INDEX 01 03:13:30
TRACK 03 AUDIO
TITLE "Growing(іЙі¤)"
PERFORMER "C''est La Vie"
INDEX 01 08:39:37
TRACK 04 AUDIO
TITLE "The Stars In E"
PERFORMER "C''est La Vie"
INDEX 01 13:52:50
TRACK 05 AUDIO
TITLE "Peace Of Mind"
PERFORMER "C''est La Vie"
INDEX 01 17:31:40
TRACK 06 AUDIO
TITLE "If You''d Kiss Me"
PERFORMER "C''est La Vie"
INDEX 01 24:12:50
TRACK 07 AUDIO
TITLE "Sweet Sunday Morning"
PERFORMER "C''est La Vie"
INDEX 01 28:39:02
TRACK 08 AUDIO
TITLE "The Touch Of Your Hand"
PERFORMER "C''est La Vie"
INDEX 01 33:05:22
TRACK 09 AUDIO
TITLE "Longing"
PERFORMER "C''est La Vie"
INDEX 01 37:53:65
TRACK 10 AUDIO
TITLE "Inner Soul"
PERFORMER "C''est La Vie"
INDEX 01 44:18:27
TRACK 11 AUDIO
TITLE "Trusting You"
PERFORMER "C''est La Vie"
INDEX 01 49:33:34
01. Iriyedei
02. Haiana Leya
03. Humbarada Eja
04. Haredeimu
05. Amalunai
06. Cumbelerene
07. Mun Coburo
08. Kalavatai
09. Deimo
10. Anelaua
11. Uruduei
12. Eyu
AUDIOCHECKER v2.0 beta (build 457) - by Dester - opdester@freemail.hu
~~~~~~~~~~~~~~~~~~~~~~~~~~~~~~~~~~
-=== НЕ РЕДАКТИРУЙТЕ ЭТОТ ФАЙЛ! ===-

Путь: ...\Peaceful Land Amaluna (CD4)

1 -=- Peaceful Land Amaluna.flac -=- CDDA (100%)

41675092
REM DISCID B90E310C
REM COMMENT "ExactAudioCopy v0.99pb4"
PERFORMER "C''est La Vie"
TITLE "Peaceful Land Amaluna"
FILE "Peaceful Land Amaluna.wav" WAVE
TRACK 01 AUDIO
TITLE "Iriyedei"
PERFORMER "C''est La Vie"
INDEX 01 00:00:00
TRACK 02 AUDIO
TITLE "Haiana Leya"
PERFORMER "C''est La Vie"
INDEX 00 04:15:20
INDEX 01 04:19:60
TRACK 03 AUDIO
TITLE "Ilumbarada Eja"
PERFORMER "C''est La Vie"
INDEX 00 08:52:20
INDEX 01 08:55:72
TRACK 04 AUDIO
TITLE "Haredeimu"
PERFORMER "C''est La Vie"
INDEX 00 14:38:27
INDEX 01 14:41:60
TRACK 05 AUDIO
TITLE "Amalunai"
PERFORMER "C''est La Vie"
INDEX 00 19:57:02
INDEX 01 20:00:25
TRACK 06 AUDIO
TITLE "Cumbelerene"
PERFORMER "C''est La Vie"
INDEX 00 26:21:22
INDEX 01 26:25:60
TRACK 07 AUDIO
TITLE "Mun Coburo"
PERFORMER "РВКАјН"
INDEX 00 31:33:22
INDEX 01 31:36:45
TRACK 08 AUDIO
TITLE "Kalavatai"
PERFORMER "C''est La Vie"
INDEX 00 35:44:25
INDEX 01 35:48:60
TRACK 09 AUDIO
TITLE "Deilaue"
PERFORMER "C''est La Vie"
INDEX 00 41:21:70
INDEX 01 41:25:30
TRACK 10 AUDIO
TITLE "Anelaua"
PERFORMER "C''est La Vie"
INDEX 00 46:04:30
INDEX 01 46:07:72
TRACK 11 AUDIO
TITLE "Uruduei"
PERFORMER "C''est La Vie"
INDEX 00 51:24:50
INDEX 01 51:29:32
TRACK 12 AUDIO
TITLE "Eyu"
PERFORMER "C''est La Vie"
INDEX 00 56:12:70
INDEX 01 56:17:42
01. Sunflower
02. Ring Of Kerry
03. Bretagn
04. Loreley
05. Caravane
06. Alameda
07. Dancin'' With Satie
08. Afternoon With Paco
09. A Day Out
10. Le Desir
11. Nashville
12. Aquarius
13. What Else
AUDIOCHECKER v2.0 beta (build 457) - by Dester - opdester@freemail.hu
~~~~~~~~~~~~~~~~~~~~~~~~~~~~~~~~~~
-=== НЕ РЕДАКТИРУЙТЕ ЭТОТ ФАЙЛ! ===-

Путь: ...\Wishes Of Sunflower Ulla Van Daelen

1 -=- Wishes Of Sunflower Ulla Van Daelen.flac -=- CDDA (100%)

184975684
REM DISCID A30D940D
REM COMMENT "ExactAudioCopy v0.99pb4"
PERFORMER "C''est La Vie"
TITLE "Wishes Of Sunflower Ulla Van Daelen"
FILE "Wishes Of Sunflower Ulla Van Daelen.wav" WAVE
TRACK 01 AUDIO
TITLE "Sunflower"
PERFORMER "C''est La Vie"
INDEX 01 00:00:00
TRACK 02 AUDIO
TITLE "Ring of Kerry"
PERFORMER "C''est La Vie"
INDEX 00 04:01:60
INDEX 01 04:07:35
TRACK 03 AUDIO
TITLE "Bretagne"
PERFORMER "C''est La Vie"
INDEX 00 07:46:30
INDEX 01 07:51:52
TRACK 04 AUDIO
TITLE "Loreley (Twin Stars)"
PERFORMER "C''est La Vie"
INDEX 00 13:09:41
INDEX 01 13:13:72
TRACK 05 AUDIO
TITLE "Caravane"
PERFORMER "C''est La Vie"
INDEX 00 17:11:69
INDEX 01 17:16:52
TRACK 06 AUDIO
TITLE "Alameda"
PERFORMER "C''est La Vie"
INDEX 00 20:07:19
INDEX 01 20:12:20
TRACK 07 AUDIO
TITLE "Dancin'' With Satie"
PERFORMER "C''est La Vie"
INDEX 00 26:21:34
INDEX 01 26:27:52
TRACK 08 AUDIO
TITLE "Afternoon with Paco"
PERFORMER "C''est La Vie"
INDEX 00 30:53:01
INDEX 01 30:58:62
TRACK 09 AUDIO
TITLE "A Day Out"
PERFORMER "C''est La Vie"
INDEX 00 36:39:57
INDEX 01 36:44:65
TRACK 10 AUDIO
TITLE "Le Desire"
PERFORMER "C''est La Vie"
INDEX 00 41:44:33
INDEX 01 41:48:65
TRACK 11 AUDIO
TITLE "Nashville"
PERFORMER "C''est La Vie"
INDEX 00 45:52:16
INDEX 01 45:58:37
TRACK 12 AUDIO
TITLE "Aquarius"
PERFORMER "C''est La Vie"
INDEX 00 50:45:62
INDEX 01 50:51:02
TRACK 13 AUDIO
TITLE "What Else"
PERFORMER "C''est La Vie"
INDEX 00 55:12:71
INDEX 01 55:19:15
01. The Luck Of The Irish
02. Girl From Iguazu
03. Out Of Macchu Pichu
04. Maria
05. Whale''s Lullaby
06. Sardegna
07. Quietude
08. Choping Goes Granada
09. San Do Flamingos
10. The Round Hill Jamaica
11. Oh Vienna
AUDIOCHECKER v2.0 beta (build 457) - by Dester - opdester@freemail.hu
~~~~~~~~~~~~~~~~~~~~~~~~~~~~~~~~~~
-=== НЕ РЕДАКТИРУЙТЕ ЭТОТ ФАЙЛ! ===-

Путь: ...\Water Flow Georg Gable

1 -=- Water Flow Georg Gabler.flac -=- CDDA (100%)

86310020
REM DISCID 980B910B
REM COMMENT "ExactAudioCopy v0.99pb4"
PERFORMER "C''est La Vie"
TITLE "Water Flow Georg Gabler"
FILE "А-Water Flow Georg Gabler.wav" WAVE
TRACK 01 AUDIO
TITLE "The Luck Of The Irish"
PERFORMER "C''est La Vie"
INDEX 01 00:00:00
TRACK 02 AUDIO
TITLE "Girl From Iguazu"
PERFORMER "C''est La Vie"
INDEX 01 03:56:17
TRACK 03 AUDIO
TITLE "Out Of Macchu Pichu"
PERFORMER "C''est La Vie"
INDEX 01 09:46:37
TRACK 04 AUDIO
TITLE "Maria"
PERFORMER "C''est La Vie"
INDEX 00 14:45:10
INDEX 01 14:46:35
TRACK 05 AUDIO
TITLE "Whale''s Lullaby"
PERFORMER "C''est La Vie"
INDEX 00 18:26:54
INDEX 01 18:29:07
TRACK 06 AUDIO
TITLE "Sardegna"
PERFORMER "C''est La Vie"
INDEX 00 22:53:05
INDEX 01 22:54:15
TRACK 07 AUDIO
TITLE "Quietude"
PERFORMER "C''est La Vie"
INDEX 01 27:28:37
TRACK 08 AUDIO
TITLE "Chopin Goes Granada"
PERFORMER "C''est La Vie"
INDEX 01 32:15:07
TRACK 09 AUDIO
TITLE "San Do Flamingos"
PERFORMER "C''est La Vie"
INDEX 00 37:14:65
INDEX 01 37:18:00
TRACK 10 AUDIO
TITLE "The Round Hill Jamaica"
PERFORMER "C''est La Vie"
INDEX 01 41:23:37
TRACK 11 AUDIO
TITLE "Oh Vienna"
PERFORMER "C''est La Vie"
INDEX 00 45:17:72
INDEX 01 45:19:30


Трекер:  [ 23-Дек-2013 14:15 ]

  

Скачать .torrent

Размер .torrent файла 19 KB


Размер: 1.76 GB
Хэш (hash) релиза: e4057ac43e9c4b47305ebe7714efad8ef0f5ae42

Еще никто не оставлял запись к записи скачать торрент VA - Cest La Vie - 2011, . Будь первым!

!Обратная связь