Скачать порно через торрент Fuurinkanzan Ветряная мельница UnionPeer.org бесплатно онлайн HD качество

Скачать новое порно 2015, 2014 новинки через торрент UnionPeer.org

Порно торрент бесплатно ЮнионПир.орг

Если у вас наблюдаются проблемы со скриншотами, переходом по ссылками, скачиванием торрентов - проблемы в блокировщике рекламы AdBlock. #хорошегоДня!


Статистика раздачи
Размер:  2.39 GB   |    Зарегистрирован:  3 года 7 месяцев   |    .torrent скачан:  96 раз   |   
Раздают:  1  
   
Загрузка...
 
Автор Сообщение

Galfimbul

avatar Galfimbul


Fuurinkanzan / 風輪奸山 / Ветряная мельница

Год производства: 2013 г.
Жанр: Anal sex, Bondage, Big tits, Tiny tits, Group sex, Oral sex, Incest, Rape, Princess, Samurai
Серии: ep. 1
Продолжительность: 1х~25 min + 14 min трейлеры
Цензура: Есть

Озвучка: Японская (Оригинальная)

Автор оригинала: Lune
Студия: Schoolzone, Angelfish

Описание RUS: В далёком царстве государстве идёт кровопролитная война, где жадные король пытается поработить всё в округе своего королевства построенного на костях своих предшественников. Только один из генералов Sanada Hikosaburo бросил ему вызов пообещав что освободит жителей от угнетения зловещего монстра каковы его все считают. Но король не боится угроз ведь у него многотысячная армия и он явно не намерен отступать от задуманного из-за одного препятствия, шаг за шагом он порабощает деревню за деревней и вместе с ними берёт себе в служанки принцесс как трофей. Что он с ними вытворяет остаётся только догадываться. Hikosaburo спасёт нас шепчут про себя принцессы ведь больше надеяться не на кого а тем временем им приходится подчинятся этому извращенцу.© Ксения Нефёдова

Описание ENG: In a distant realm of the state a bloody war where greedy king tries to enslave all around his kingdom built on the bones of their predecessors. Only one of the generals Sanada Hikosaburo challenged him promising that frees residents from oppression sinister monster what its all believe. But the king is not afraid of threats because he has an army of many thousands, and he clearly does not intend to deviate from the planned because of one obstacle, step by step, he enslaves village after village and with them takes a handmaid princesses as a trophy. What he gets up with them can only guess. Hikosaburo save us whisper to himself princess because more hope there is someone in the meantime, they have to submit to this pervert.

Информационные ссылки: AniDB - MAL - World Art - ХентайМаг

Качество видео: DVD5
Формат видео: DVD Video
Видео кодек: MPEG2
Аудио кодек: AC3
Видео: 720х480, (16:9), 29,970 кадров/сек, ~ 8056 Кбит/сек, NTSC
Аудио: JAP, AC-3, 2 канала, 384 Кбит/сек, 48,0 КГц
Общее
Полное имя : J:\VIDEO_TS\VTS_01_1.VOB
Формат : MPEG-PS
Размер файла : 1024 Мбайт
Продолжительность : 16 м.
Режим общего битрейта : Переменный
Общий поток : 8612 Кбит/сек

Видео
Идентификатор : 224 (0xE0)
Формат : MPEG Video
Версия формата : Version 2
Профиль формата : Main@Main
Параметр BVOP формата : Да
Параметр матрицы формата : Выборочная
Параметр GOP формата : Variable
Продолжительность : 16 м.
Вид битрейта : Переменный
Битрейт : 8056 Кбит/сек
Максимальный битрейт : 9800 Кбит/сек
Ширина : 720 пикселей
Высота : 480 пикселей
Соотношение сторон : 16:9
Частота кадров : 29,970 кадров/сек
Стандарт вещания : NTSC
Цветовое пространство : YUV
Субдискретизация насыщенности : 4:2:0
Битовая глубина : 8 бит
Тип развёртки : Чересстрочная
Порядок развёртки : Верхнее поле первое
Метод сжатия : С потерями
Бит/(Пиксели*Кадры) : 0.778
Временной код первого кадра : 00:00:00:00
Оригинал временного кода : Group of pictures header
Размер потока : 958 Мбайт (94%)

Аудио
Идентификатор : 189 (0xBD)-128 (0x80)
Формат : AC-3
Формат/Информация : Audio Coding 3
Расширение режима : CM (complete main)
Параметр Endianness формата : Big
Режим смешивания : DVD-Video
Продолжительность : 16 м.
Вид битрейта : Постоянный
Битрейт : 384 Кбит/сек
Каналы : 2 канала
Расположение каналов : Front: L R
Частота : 48,0 КГц
Битовая глубина : 16 бит
Метод сжатия : С потерями
Размер потока : 45,6 Мбайт (4%)

Меню


Трекер:  [ 22-Дек-2013 19:17 ]

  

Скачать .torrent

Размер .torrent файла 12 KB


Размер: 2.39 GB
Хэш (hash) релиза: d2e27ccbfe64f6285a15e53d5c14cc80e4761636

Еще никто не оставлял запись к записи скачать торрент Fuurinkanzan Ветряная мельница . Будь первым!

!Обратная связь