Скачать через торрент музыку бесплатно без регистрации torrent

Если у вас наблюдаются проблемы со скриншотами, переходом по ссылками, скачиванием торрентов - проблемы в блокировщике рекламы AdBlock. #хорошегоДня!


Статистика раздачи
Размер:  552 MB   |    Зарегистрирован:  3 года 10 месяцев   |    .torrent скачан:  108 раз   |   
Раздают:  1  
   
Загрузка...
 
Автор Сообщение

Galfimbul

avatar Galfimbul


♦ John Muggsy Spanier - Classic Jazz Archive {1939-1946, 2CD, Box Set} ♦

Жанр: Dixieland, Swing
Носитель: CD
Страна-производитель диска: Germany
Год издания: 2004
Издатель (лейбл): Membran Music
Номер по каталогу: 221990-306
Аудиокодек: APE (*.ape)
Тип рипа: tracks+.cue
Битрейт аудио: lossless
Продолжительность: 02:34:19
Источник (релизер): Рипы с дисков.
Наличие сканов в содержимом раздачи: да
Треклист:

01. At the Jazz Band Ball [02:52]
02. Sister Kate [02:56]
03. Dippermouth Blues (Sugar Foot Stomp) [02:28]
04. Riverboat Shuffle [02:47]
05. Relaxin at the Touro [03:14]
06. At Sundown [02:35]
07. Bluin the Blues [02:41]
08. Lonesome Road [03:01]
09. Sweet Lorraine [04:22]
10. Four or Five Times [04:11]
11. Thats a Plenty [04:19]
12. Sweet Sue (Just You) [04:06]
13. Angry [02:49]
14. Weary Blues [03:00]
15. Snag It [03:14]
16. Alice Blue Gown [03:08]
17. Sweet Lorraine [03:53]
18. Oh! Lady Be Good [03:28]
19. Sugar [03:04]
20. September in the Rain [04:22]
21. Memphis Blues [04:15]
22. Riverside Blues [03:05]
23. Rosetta [03:13]
Exact Audio Copy V1.0 beta 3 from 29. August 2011

EAC extraction logfile from 20. December 2013, 19:25

Muggsy Spanier / CD1 - Whistlin'' The Blues

Used drive : Optiarc DVD RW AD-5200A Adapter: 0 ID: 0

Read mode : SecureUtilize accurate stream : YesDefeat audio cache : YesMake use of C2 pointers : No

Read offset correction : 48Overread into Lead-In and Lead-Out : NoFill up missing offset samples with silence : YesDelete leading and trailing silent blocks : NoNull samples used in CRC calculations : YesUsed interface : Native Win32 interface for Win NT & 2000Gap handling : Appended to previous track

Used output format : User Defined EncoderSelected bitrate : 128 kBit/sQuality : HighAdd ID3 tag : NoCommand line compressor : F:\Program Files\Monkey''s Audio\wapet.exeAdditional command line options : %dest% -t "Genre=%genre%" -t "Artist=%artist%" -t "Title=%title%" -t "Album=%albumtitle%" -t "Year=%year%" -t "Track=%tracknr%" -t "Comment=%comment%" mac.exe %source% %dest% -c3000

TOC of the extracted CD

Track | Start | Length | Start sector | End sector --------------------------------------------------------- 1 | 0:00.00 | 2:52.47 | 0 | 12946 2 | 2:52.47 | 2:56.54 | 12947 | 26200 3 | 5:49.26 | 2:28.22 | 26201 | 37322 4 | 8:17.48 | 2:47.39 | 37323 | 49886 5 | 11:05.12 | 3:14.63 | 49887 | 64499 6 | 14:20.00 | 2:35.23 | 64500 | 76147 7 | 16:55.23 | 2:41.49 | 76148 | 88271 8 | 19:36.72 | 3:01.10 | 88272 | 101856 9 | 22:38.07 | 4:22.45 | 101857 | 121551 10 | 27:00.52 | 4:11.25 | 121552 | 140401 11 | 31:12.02 | 4:19.32 | 140402 | 159858 12 | 35:31.34 | 4:06.62 | 159859 | 178370 13 | 39:38.21 | 2:49.33 | 178371 | 191078 14 | 42:27.54 | 3:00.08 | 191079 | 204586 15 | 45:27.62 | 3:14.01 | 204587 | 219137 16 | 48:41.63 | 3:08.69 | 219138 | 233306 17 | 51:50.57 | 3:53.30 | 233307 | 250811 18 | 55:44.12 | 3:28.18 | 250812 | 266429 19 | 59:12.30 | 3:04.52 | 266430 | 280281 20 | 62:17.07 | 4:22.44 | 280282 | 299975 21 | 66:39.51 | 4:15.65 | 299976 | 319165 22 | 70:55.41 | 3:05.48 | 319166 | 333088 23 | 74:01.14 | 3:13.49 | 333089 | 347612

Track 1

Filename F:\2004.John Maggsy Spanier - Classic Jazz Archive (2CD)\CD1 - Whistlin'' The Blues\01. At the Jazz Band Ball.wav

Pre-gap length 0:00:02.00

Peak level 100.0 % Extraction speed 2.0 X Track quality 99.9 % Test CRC 04BADC03 Copy CRC 04BADC03 Track not present in AccurateRip database Copy OK

Track 2

Filename F:\2004.John Maggsy Spanier - Classic Jazz Archive (2CD)\CD1 - Whistlin'' The Blues\02. Sister Kate.wav

Pre-gap length 0:00:02.00

Peak level 100.0 % Extraction speed 2.5 X Track quality 100.0 % Test CRC 21B2A79F Copy CRC 21B2A79F Track not present in AccurateRip database Copy OK

Track 3

Filename F:\2004.John Maggsy Spanier - Classic Jazz Archive (2CD)\CD1 - Whistlin'' The Blues\03. Dippermouth Blues (Sugar Foot Stomp).wav

Pre-gap length 0:00:02.00

Peak level 100.0 % Extraction speed 2.4 X Track quality 100.0 % Test CRC 1798D986 Copy CRC 1798D986 Track not present in AccurateRip database Copy OK

Track 4

Filename F:\2004.John Maggsy Spanier - Classic Jazz Archive (2CD)\CD1 - Whistlin'' The Blues\04. Riverboat Shuffle.wav

Pre-gap length 0:00:02.00

Peak level 100.0 % Extraction speed 2.7 X Track quality 100.0 % Test CRC 2D934639 Copy CRC 2D934639 Track not present in AccurateRip database Copy OK

Track 5

Filename F:\2004.John Maggsy Spanier - Classic Jazz Archive (2CD)\CD1 - Whistlin'' The Blues\05. Relaxin at the Touro.wav

Pre-gap length 0:00:02.00

Peak level 100.0 % Extraction speed 2.5 X Track quality 99.9 % Test CRC 4A5B0D93 Copy CRC 4A5B0D93 Track not present in AccurateRip database Copy OK

Track 6

Filename F:\2004.John Maggsy Spanier - Classic Jazz Archive (2CD)\CD1 - Whistlin'' The Blues\06. At Sundown.wav

Pre-gap length 0:00:02.00

Peak level 100.0 % Extraction speed 2.9 X Track quality 100.0 % Test CRC 51C05646 Copy CRC 51C05646 Track not present in AccurateRip database Copy OK

Track 7

Filename F:\2004.John Maggsy Spanier - Classic Jazz Archive (2CD)\CD1 - Whistlin'' The Blues\07. Bluin the Blues.wav

Pre-gap length 0:00:02.00

Peak level 100.0 % Extraction speed 2.6 X Track quality 99.9 % Test CRC DCDF6053 Copy CRC DCDF6053 Track not present in AccurateRip database Copy OK

Track 8

Filename F:\2004.John Maggsy Spanier - Classic Jazz Archive (2CD)\CD1 - Whistlin'' The Blues\08. Lonesome Road.wav

Pre-gap length 0:00:02.00

Peak level 100.0 % Extraction speed 3.2 X Track quality 100.0 % Test CRC 17DC6F3D Copy CRC 17DC6F3D Track not present in AccurateRip database Copy OK

Track 9

Filename F:\2004.John Maggsy Spanier - Classic Jazz Archive (2CD)\CD1 - Whistlin'' The Blues\09. Sweet Lorraine.wav

Pre-gap length 0:00:02.00

Peak level 100.0 % Extraction speed 3.1 X Track quality 99.9 % Test CRC E45F843E Copy CRC E45F843E Track not present in AccurateRip database Copy OK

Track 10

Filename F:\2004.John Maggsy Spanier - Classic Jazz Archive (2CD)\CD1 - Whistlin'' The Blues\10. Four or Five Times.wav

Pre-gap length 0:00:02.00

Peak level 100.0 % Extraction speed 3.1 X Track quality 99.9 % Test CRC 54252EAC Copy CRC 54252EAC Track not present in AccurateRip database Copy OK

Track 11

Filename F:\2004.John Maggsy Spanier - Classic Jazz Archive (2CD)\CD1 - Whistlin'' The Blues\11. Thats a Plenty.wav

Pre-gap length 0:00:02.00

Peak level 100.0 % Extraction speed 3.6 X Track quality 100.0 % Test CRC 32CFD6E4 Copy CRC 32CFD6E4 Track not present in AccurateRip database Copy OK

Track 12

Filename F:\2004.John Maggsy Spanier - Classic Jazz Archive (2CD)\CD1 - Whistlin'' The Blues\12. Sweet Sue (Just You).wav

Pre-gap length 0:00:02.00

Peak level 100.0 % Extraction speed 3.8 X Track quality 100.0 % Test CRC 379FB48C Copy CRC 379FB48C Track not present in AccurateRip database Copy OK

Track 13

Filename F:\2004.John Maggsy Spanier - Classic Jazz Archive (2CD)\CD1 - Whistlin'' The Blues\13. Angry.wav

Pre-gap length 0:00:02.00

Peak level 100.0 % Extraction speed 3.7 X Track quality 100.0 % Test CRC B974D624 Copy CRC B974D624 Track not present in AccurateRip database Copy OK

Track 14

Filename F:\2004.John Maggsy Spanier - Classic Jazz Archive (2CD)\CD1 - Whistlin'' The Blues\14. Weary Blues.wav

Pre-gap length 0:00:02.00

Peak level 100.0 % Extraction speed 3.8 X Track quality 100.0 % Test CRC 7384297A Copy CRC 7384297A Track not present in AccurateRip database Copy OK

Track 15

Filename F:\2004.John Maggsy Spanier - Classic Jazz Archive (2CD)\CD1 - Whistlin'' The Blues\15. Snag It.wav

Pre-gap length 0:00:02.00

Peak level 100.0 % Extraction speed 3.9 X Track quality 100.0 % Test CRC 944FE674 Copy CRC 944FE674 Track not present in AccurateRip database Copy OK

Track 16

Filename F:\2004.John Maggsy Spanier - Classic Jazz Archive (2CD)\CD1 - Whistlin'' The Blues\16. Alice Blue Gown.wav

Pre-gap length 0:00:02.00

Peak level 100.0 % Extraction speed 3.5 X Track quality 99.9 % Test CRC DBEE47F4 Copy CRC DBEE47F4 Track not present in AccurateRip database Copy OK

Track 17

Filename F:\2004.John Maggsy Spanier - Classic Jazz Archive (2CD)\CD1 - Whistlin'' The Blues\17. Sweet Lorraine.wav

Pre-gap length 0:00:02.00

Peak level 100.0 % Extraction speed 3.7 X Track quality 99.9 % Test CRC EC20D663 Copy CRC EC20D663 Track not present in AccurateRip database Copy OK

Track 18

Filename F:\2004.John Maggsy Spanier - Classic Jazz Archive (2CD)\CD1 - Whistlin'' The Blues\18. Oh! Lady Be Good.wav

Pre-gap length 0:00:02.00

Peak level 100.0 % Extraction speed 4.3 X Track quality 100.0 % Test CRC 8732167D Copy CRC 8732167D Track not present in AccurateRip database Copy OK

Track 19

Filename F:\2004.John Maggsy Spanier - Classic Jazz Archive (2CD)\CD1 - Whistlin'' The Blues\19. Sugar.wav

Pre-gap length 0:00:02.00

Peak level 100.0 % Extraction speed 4.3 X Track quality 100.0 % Test CRC B0CD2AF8 Copy CRC B0CD2AF8 Track not present in AccurateRip database Copy OK

Track 20

Filename F:\2004.John Maggsy Spanier - Classic Jazz Archive (2CD)\CD1 - Whistlin'' The Blues\20. September in the Rain.wav

Pre-gap length 0:00:02.00

Peak level 100.0 % Extraction speed 4.1 X Track quality 99.9 % Test CRC 955A9636 Copy CRC 955A9636 Track not present in AccurateRip database Copy OK

Track 21

Filename F:\2004.John Maggsy Spanier - Classic Jazz Archive (2CD)\CD1 - Whistlin'' The Blues\21. Memphis Blues.wav

Pre-gap length 0:00:02.00

Peak level 100.0 % Extraction speed 4.8 X Track quality 100.0 % Test CRC E60EE337 Copy CRC E60EE337 Track not present in AccurateRip database Copy OK

Track 22

Filename F:\2004.John Maggsy Spanier - Classic Jazz Archive (2CD)\CD1 - Whistlin'' The Blues\22. Riverside Blues.wav

Pre-gap length 0:00:02.00

Peak level 100.0 % Extraction speed 4.7 X Track quality 100.0 % Test CRC F9263513 Copy CRC F9263513 Track not present in AccurateRip database Copy OK

Track 23

Filename F:\2004.John Maggsy Spanier - Classic Jazz Archive (2CD)\CD1 - Whistlin'' The Blues\23. Rosetta.wav

Pre-gap length 0:00:02.00

Peak level 100.0 % Extraction speed 4.6 X Track quality 100.0 % Test CRC 32F923CA Copy CRC 32F923CA Track not present in AccurateRip database Copy OK

None of the tracks are present in the AccurateRip database

No errors occurred

End of status report

==== Log checksum 492B24ED4F2696E84D2613FB89B6324082CD9CDECCE1D8E863D0BC218FBA158F ====
REM GENRE JazzREM DATE 2004REM DISCID 46121A17REM COMMENT "ExactAudioCopy v1.0b3"PERFORMER "Muggsy Spanier"TITLE "CD1 - Whistlin'' The Blues "FILE "01. At the Jazz Band Ball.wav" WAVE TRACK 01 AUDIO TITLE "At the Jazz Band Ball" PERFORMER "Muggsy Spanier" ISRC DEU240400001 INDEX 01 00:00:00 TRACK 02 AUDIO TITLE "Sister Kate" PERFORMER "Muggsy Spanier" ISRC DEU240400002 INDEX 00 02:50:47FILE "02. Sister Kate.wav" WAVE INDEX 01 00:00:00 TRACK 03 AUDIO TITLE "Dippermouth Blues (Sugar Foot Stomp)" PERFORMER "Muggsy Spanier" ISRC DEU240400003 INDEX 00 02:54:54FILE "03. Dippermouth Blues (Sugar Foot Stomp).wav" WAVE INDEX 01 00:00:00 TRACK 04 AUDIO TITLE "Riverboat Shuffle" PERFORMER "Muggsy Spanier" ISRC DEU240400004 INDEX 00 02:26:22FILE "04. Riverboat Shuffle.wav" WAVE INDEX 01 00:00:00 TRACK 05 AUDIO TITLE "Relaxin at the Touro" PERFORMER "Muggsy Spanier" ISRC DEU240400005 INDEX 00 02:45:39FILE "05. Relaxin at the Touro.wav" WAVE INDEX 01 00:00:00 TRACK 06 AUDIO TITLE "At Sundown" PERFORMER "Muggsy Spanier" ISRC DEU240400006 INDEX 00 03:12:63FILE "06. At Sundown.wav" WAVE INDEX 01 00:00:00 TRACK 07 AUDIO TITLE "Bluin the Blues" PERFORMER "Muggsy Spanier" ISRC DEU240400007 INDEX 00 02:33:23FILE "07. Bluin the Blues.wav" WAVE INDEX 01 00:00:00 TRACK 08 AUDIO TITLE "Lonesome Road" PERFORMER "Muggsy Spanier" ISRC DEU240400008 INDEX 00 02:39:49FILE "08. Lonesome Road.wav" WAVE INDEX 01 00:00:00 TRACK 09 AUDIO TITLE "Sweet Lorraine" PERFORMER "Muggsy Spanier" ISRC DEU240400009 INDEX 00 02:59:10FILE "09. Sweet Lorraine.wav" WAVE INDEX 01 00:00:00 TRACK 10 AUDIO TITLE "Four or Five Times" PERFORMER "Muggsy Spanier" ISRC DEU240400010 INDEX 00 04:20:45FILE "10. Four or Five Times.wav" WAVE INDEX 01 00:00:00 TRACK 11 AUDIO TITLE "Thats a Plenty" PERFORMER "Muggsy Spanier" ISRC DEU240400011 INDEX 00 04:09:25FILE "11. Thats a Plenty.wav" WAVE INDEX 01 00:00:00 TRACK 12 AUDIO TITLE "Sweet Sue (Just You)" PERFORMER "Muggsy Spanier" ISRC DEU240400012 INDEX 00 04:17:32FILE "12. Sweet Sue (Just You).wav" WAVE INDEX 01 00:00:00 TRACK 13 AUDIO TITLE "Angry" PERFORMER "Muggsy Spanier" ISRC DEU240400013 INDEX 00 04:04:62FILE "13. Angry.wav" WAVE INDEX 01 00:00:00 TRACK 14 AUDIO TITLE "Weary Blues" PERFORMER "Muggsy Spanier" ISRC DEU240400014 INDEX 00 02:47:33FILE "14. Weary Blues.wav" WAVE INDEX 01 00:00:00 TRACK 15 AUDIO TITLE "Snag It" PERFORMER "Muggsy Spanier" ISRC DEU240400015 INDEX 00 02:58:08FILE "15. Snag It.wav" WAVE INDEX 01 00:00:00 TRACK 16 AUDIO TITLE "Alice Blue Gown" PERFORMER "Muggsy Spanier" ISRC DEU240400016 INDEX 00 03:12:01FILE "16. Alice Blue Gown.wav" WAVE INDEX 01 00:00:00 TRACK 17 AUDIO TITLE "Sweet Lorraine " PERFORMER "Muggsy Spanier" ISRC DEU240400017 INDEX 00 03:06:69FILE "17. Sweet Lorraine.wav" WAVE INDEX 01 00:00:00 TRACK 18 AUDIO TITLE "Oh! Lady Be Good" PERFORMER "Muggsy Spanier" ISRC DEU240400018 INDEX 00 03:51:30FILE "18. Oh! Lady Be Good.wav" WAVE INDEX 01 00:00:00 TRACK 19 AUDIO TITLE "Sugar" PERFORMER "Muggsy Spanier" ISRC DEU240400019 INDEX 00 03:26:18FILE "19. Sugar.wav" WAVE INDEX 01 00:00:00 TRACK 20 AUDIO TITLE "September in the Rain" PERFORMER "Muggsy Spanier" ISRC DEU240400020 INDEX 00 03:02:52FILE "20. September in the Rain.wav" WAVE INDEX 01 00:00:00 TRACK 21 AUDIO TITLE "Memphis Blues" PERFORMER "Muggsy Spanier" ISRC DEU240400021 INDEX 00 04:20:44FILE "21. Memphis Blues.wav" WAVE INDEX 01 00:00:00 TRACK 22 AUDIO TITLE "Riverside Blues" PERFORMER "Muggsy Spanier" ISRC DEU240400022 INDEX 00 04:13:65FILE "22. Riverside Blues.wav" WAVE INDEX 01 00:00:00 TRACK 23 AUDIO TITLE "Rosetta" PERFORMER "Muggsy Spanier" ISRC DEU240400023 INDEX 00 03:03:48FILE "23. Rosetta.wav" WAVE INDEX 01 00:00:00
[b]Треклист:

[b]
01. Thats a Plenty [04:39]
02. Squeeze Me [04:36]
03. Jazz Me Blue [04:06]
04. Pee Wee Speaks [04:46]
05. Pats Blues [04:34]
06. Whistlin'' The Blues [03:08]
07. Sobbin'' Blues [02:56]
08. Darktown Strutters'' Ball [03:03]
09. The Lady''s in Love with You [03:03]
10. Tin Roof Blues [02:56]
11. Muskrat Ramble [03:06]
12. Bugle Call Rag [02:57]
13. That''s A Plenty [02:54]
14. Feather Brain Blues [03:03]
15. Lucky To Me [02:55]
16. Tin Roof Blues [02:58]
17. Cherry [02:43]
18. China Boy [04:56]
19. You''re Driving Me Crazy [02:33]
20. You Took Advantage of Me [03:11]
21. Pee Wee Squawks [02:33]
22. Sentimental Journey [02:48]
23. Muggsy Special [02:29]
Exact Audio Copy V1.0 beta 3 from 29. August 2011

EAC extraction logfile from 20. December 2013, 20:26

Muggsy Spanier / CD2 - Pee Wee Speaks

Used drive : Optiarc DVD RW AD-5200A Adapter: 0 ID: 0

Read mode : SecureUtilize accurate stream : YesDefeat audio cache : YesMake use of C2 pointers : No

Read offset correction : 48Overread into Lead-In and Lead-Out : NoFill up missing offset samples with silence : YesDelete leading and trailing silent blocks : NoNull samples used in CRC calculations : YesUsed interface : Native Win32 interface for Win NT & 2000Gap handling : Appended to previous track

Used output format : User Defined EncoderSelected bitrate : 128 kBit/sQuality : HighAdd ID3 tag : NoCommand line compressor : F:\Program Files\Monkey''s Audio\wapet.exeAdditional command line options : %dest% -t "Genre=%genre%" -t "Artist=%artist%" -t "Title=%title%" -t "Album=%albumtitle%" -t "Year=%year%" -t "Track=%tracknr%" -t "Comment=%comment%" mac.exe %source% %dest% -c3000

TOC of the extracted CD

Track | Start | Length | Start sector | End sector --------------------------------------------------------- 1 | 0:00.00 | 4:39.56 | 0 | 20980 2 | 4:39.56 | 4:36.73 | 20981 | 41753 3 | 9:16.54 | 4:06.46 | 41754 | 60249 4 | 13:23.25 | 4:46.45 | 60250 | 81744 5 | 18:09.70 | 4:34.08 | 81745 | 102302 6 | 22:44.03 | 3:08.02 | 102303 | 116404 7 | 25:52.05 | 2:56.29 | 116405 | 129633 8 | 28:48.34 | 3:03.49 | 129634 | 143407 9 | 31:52.08 | 3:03.33 | 143408 | 157165 10 | 34:55.41 | 2:56.48 | 157166 | 170413 11 | 37:52.14 | 3:06.38 | 170414 | 184401 12 | 40:58.52 | 2:57.37 | 184402 | 197713 13 | 43:56.14 | 2:54.33 | 197714 | 210796 14 | 46:50.47 | 3:03.07 | 210797 | 224528 15 | 49:53.54 | 2:55.65 | 224529 | 237718 16 | 52:49.44 | 2:58.70 | 237719 | 251138 17 | 55:48.39 | 2:43.50 | 251139 | 263413 18 | 58:32.14 | 4:56.50 | 263414 | 285663 19 | 63:28.64 | 2:33.54 | 285664 | 297192 20 | 66:02.43 | 3:11.05 | 297193 | 311522 21 | 69:13.48 | 2:33.32 | 311523 | 323029 22 | 71:47.05 | 2:48.08 | 323030 | 335637 23 | 74:35.13 | 2:29.19 | 335638 | 346831

Track 1

Filename F:\2004.John Maggsy Spanier - Classic Jazz Archive (2CD)\CD2 - Pee Wee Speaks\01. Thats a Plenty.wav

Pre-gap length 0:00:02.00

Peak level 100.0 % Extraction speed 2.5 X Track quality 100.0 % Test CRC 64DCB07E Copy CRC 64DCB07E Track not present in AccurateRip database Copy OK

Track 2

Filename F:\2004.John Maggsy Spanier - Classic Jazz Archive (2CD)\CD2 - Pee Wee Speaks\02. Squeeze Me.wav

Pre-gap length 0:00:02.00

Peak level 100.0 % Extraction speed 2.7 X Track quality 100.0 % Test CRC 580B7282 Copy CRC 580B7282 Track not present in AccurateRip database Copy OK

Track 3

Filename F:\2004.John Maggsy Spanier - Classic Jazz Archive (2CD)\CD2 - Pee Wee Speaks\03. Jazz Me Blue.wav

Pre-gap length 0:00:02.00

Peak level 100.0 % Extraction speed 2.9 X Track quality 100.0 % Test CRC A9B3A3FD Copy CRC A9B3A3FD Track not present in AccurateRip database Copy OK

Track 4

Filename F:\2004.John Maggsy Spanier - Classic Jazz Archive (2CD)\CD2 - Pee Wee Speaks\04. Pee Wee Speaks.wav

Pre-gap length 0:00:02.00

Peak level 100.0 % Extraction speed 3.2 X Track quality 100.0 % Test CRC BC5B803C Copy CRC BC5B803C Track not present in AccurateRip database Copy OK

Track 5

Filename F:\2004.John Maggsy Spanier - Classic Jazz Archive (2CD)\CD2 - Pee Wee Speaks\05. Pats Blues.wav

Pre-gap length 0:00:02.00

Peak level 100.0 % Extraction speed 3.4 X Track quality 100.0 % Test CRC 194B2E20 Copy CRC 194B2E20 Track not present in AccurateRip database Copy OK

Track 6

Filename F:\2004.John Maggsy Spanier - Classic Jazz Archive (2CD)\CD2 - Pee Wee Speaks\06. Whistlin'' The Blues.wav

Pre-gap length 0:00:02.00

Peak level 100.0 % Extraction speed 3.3 X Track quality 100.0 % Test CRC 748E93D1 Copy CRC 748E93D1 Track not present in AccurateRip database Copy OK

Track 7

Filename F:\2004.John Maggsy Spanier - Classic Jazz Archive (2CD)\CD2 - Pee Wee Speaks\07. Sobbin'' Blues.wav

Pre-gap length 0:00:02.00

Peak level 100.0 % Extraction speed 3.3 X Track quality 100.0 % Test CRC F1A883D0 Copy CRC F1A883D0 Track not present in AccurateRip database Copy OK

Track 8

Filename F:\2004.John Maggsy Spanier - Classic Jazz Archive (2CD)\CD2 - Pee Wee Speaks\08. Darktown Strutters'' Ball.wav

Pre-gap length 0:00:02.00

Peak level 100.0 % Extraction speed 3.4 X Track quality 100.0 % Test CRC C1C97F54 Copy CRC C1C97F54 Track not present in AccurateRip database Copy OK

Track 9

Filename F:\2004.John Maggsy Spanier - Classic Jazz Archive (2CD)\CD2 - Pee Wee Speaks\09. The Lady''s in Love with You.wav

Pre-gap length 0:00:02.00

Peak level 100.0 % Extraction speed 3.5 X Track quality 100.0 % Test CRC B28DE245 Copy CRC B28DE245 Track not present in AccurateRip database Copy OK

Track 10

Filename F:\2004.John Maggsy Spanier - Classic Jazz Archive (2CD)\CD2 - Pee Wee Speaks\10. Tin Roof Blues.wav

Pre-gap length 0:00:02.00

Peak level 100.0 % Extraction speed 3.1 X Track quality 99.9 % Test CRC 1353FFC3 Copy CRC 1353FFC3 Track not present in AccurateRip database Copy OK

Track 11

Filename F:\2004.John Maggsy Spanier - Classic Jazz Archive (2CD)\CD2 - Pee Wee Speaks\11. Muskrat Ramble.wav

Pre-gap length 0:00:02.00

Peak level 100.0 % Extraction speed 3.5 X Track quality 100.0 % Test CRC B2259079 Copy CRC B2259079 Track not present in AccurateRip database Copy OK

Track 12

Filename F:\2004.John Maggsy Spanier - Classic Jazz Archive (2CD)\CD2 - Pee Wee Speaks\12. Bugle Call Rag.wav

Pre-gap length 0:00:02.00

Peak level 100.0 % Extraction speed 3.7 X Track quality 100.0 % Test CRC A8F5848B Copy CRC A8F5848B Track not present in AccurateRip database Copy OK

Track 13

Filename F:\2004.John Maggsy Spanier - Classic Jazz Archive (2CD)\CD2 - Pee Wee Speaks\13. That''s A Plenty.wav

Pre-gap length 0:00:02.00

Peak level 100.0 % Extraction speed 3.7 X Track quality 100.0 % Test CRC 4E7E3A97 Copy CRC 4E7E3A97 Track not present in AccurateRip database Copy OK

Track 14

Filename F:\2004.John Maggsy Spanier - Classic Jazz Archive (2CD)\CD2 - Pee Wee Speaks\14. Feather Brain Blues.wav

Pre-gap length 0:00:02.00

Peak level 100.0 % Extraction speed 4.0 X Track quality 100.0 % Test CRC A58FED29 Copy CRC A58FED29 Track not present in AccurateRip database Copy OK

Track 15

Filename F:\2004.John Maggsy Spanier - Classic Jazz Archive (2CD)\CD2 - Pee Wee Speaks\15. Lucky To Me.wav

Pre-gap length 0:00:02.00

Peak level 100.0 % Extraction speed 4.0 X Track quality 100.0 % Test CRC E9E881E1 Copy CRC E9E881E1 Track not present in AccurateRip database Copy OK

Track 16

Filename F:\2004.John Maggsy Spanier - Classic Jazz Archive (2CD)\CD2 - Pee Wee Speaks\16. Tin Roof Blues.wav

Pre-gap length 0:00:02.00

Peak level 100.0 % Extraction speed 3.5 X Track quality 99.9 % Test CRC 5E2DDAB8 Copy CRC 5E2DDAB8 Track not present in AccurateRip database Copy OK

Track 17

Filename F:\2004.John Maggsy Spanier - Classic Jazz Archive (2CD)\CD2 - Pee Wee Speaks\17. Cherry.wav

Pre-gap length 0:00:01.74

Peak level 100.0 % Extraction speed 3.5 X Track quality 99.9 % Test CRC B24056C6 Copy CRC B24056C6 Track not present in AccurateRip database Copy OK

Track 18

Filename F:\2004.John Maggsy Spanier - Classic Jazz Archive (2CD)\CD2 - Pee Wee Speaks\18. China Boy.wav

Pre-gap length 0:00:02.00

Peak level 100.0 % Extraction speed 4.6 X Track quality 100.0 % Test CRC 5D08F423 Copy CRC 5D08F423 Track not present in AccurateRip database Copy OK

Track 19

Filename F:\2004.John Maggsy Spanier - Classic Jazz Archive (2CD)\CD2 - Pee Wee Speaks\19. You''re Driving Me Crazy.wav

Pre-gap length 0:00:02.00

Peak level 100.0 % Extraction speed 3.6 X Track quality 99.9 % Test CRC 13AAF636 Copy CRC 13AAF636 Track not present in AccurateRip database Copy OK

Track 20

Filename F:\2004.John Maggsy Spanier - Classic Jazz Archive (2CD)\CD2 - Pee Wee Speaks\20. You Took Advantage of Me.wav

Pre-gap length 0:00:02.00

Peak level 100.0 % Extraction speed 4.6 X Track quality 100.0 % Test CRC 7C90B91A Copy CRC 7C90B91A Track not present in AccurateRip database Copy OK

Track 21

Filename F:\2004.John Maggsy Spanier - Classic Jazz Archive (2CD)\CD2 - Pee Wee Speaks\21. Pee Wee Squawks.wav

Pre-gap length 0:00:02.00

Peak level 100.0 % Extraction speed 4.4 X Track quality 100.0 % Test CRC 147B51CE Copy CRC 147B51CE Track not present in AccurateRip database Copy OK

Track 22

Filename F:\2004.John Maggsy Spanier - Classic Jazz Archive (2CD)\CD2 - Pee Wee Speaks\22. Sentimental Journey.wav

Pre-gap length 0:00:02.00

Peak level 100.0 % Extraction speed 4.7 X Track quality 100.0 % Test CRC DC18C209 Copy CRC DC18C209 Track not present in AccurateRip database Copy OK

Track 23

Filename F:\2004.John Maggsy Spanier - Classic Jazz Archive (2CD)\CD2 - Pee Wee Speaks\23. Muggsy Special.wav

Pre-gap length 0:00:02.00

Peak level 100.0 % Extraction speed 4.7 X Track quality 100.0 % Test CRC 9239E7B2 Copy CRC 9239E7B2 Track not present in AccurateRip database Copy OK

None of the tracks are present in the AccurateRip database

No errors occurred

End of status report

==== Log checksum 6042AC2FAAB21D61A09098BD27B43A4F0CC1315088D244BCE12DD15B4BE64916 ====
REM GENRE JazzREM DATE 2004REM DISCID 52121017REM COMMENT "ExactAudioCopy v1.0b3"PERFORMER "Muggsy Spanier"TITLE "CD2 - Pee Wee Speaks"FILE "01. Thats a Plenty.wav" WAVE TRACK 01 AUDIO TITLE "Thats a Plenty" PERFORMER "Muggsy Spanier" ISRC DEU240400024 INDEX 01 00:00:00 TRACK 02 AUDIO TITLE "Squeeze Me" PERFORMER "Muggsy Spanier" ISRC DEU240400025 INDEX 00 04:37:56FILE "02. Squeeze Me.wav" WAVE INDEX 01 00:00:00 TRACK 03 AUDIO TITLE "Jazz Me Blue" PERFORMER "Muggsy Spanier" ISRC DEU240400026 INDEX 00 04:34:73FILE "03. Jazz Me Blue.wav" WAVE INDEX 01 00:00:00 TRACK 04 AUDIO TITLE "Pee Wee Speaks" PERFORMER "Muggsy Spanier" ISRC DEU240400027 INDEX 00 04:04:46FILE "04. Pee Wee Speaks.wav" WAVE INDEX 01 00:00:00 TRACK 05 AUDIO TITLE "Pats Blues" PERFORMER "Muggsy Spanier" ISRC DEU240400028 INDEX 00 04:44:45FILE "05. Pats Blues.wav" WAVE INDEX 01 00:00:00 TRACK 06 AUDIO TITLE "Whistlin'' The Blues" PERFORMER "Muggsy Spanier" ISRC DEU240400029 INDEX 00 04:32:08FILE "06. Whistlin'' The Blues.wav" WAVE INDEX 01 00:00:00 TRACK 07 AUDIO TITLE "Sobbin'' Blues" PERFORMER "Muggsy Spanier" ISRC DEU240400030 INDEX 00 03:06:02FILE "07. Sobbin'' Blues.wav" WAVE INDEX 01 00:00:00 TRACK 08 AUDIO TITLE "Darktown Strutters'' Ball" PERFORMER "Muggsy Spanier" ISRC DEU240400031 INDEX 00 02:54:29FILE "08. Darktown Strutters'' Ball.wav" WAVE INDEX 01 00:00:00 TRACK 09 AUDIO TITLE "The Lady''s in Love with You" PERFORMER "Muggsy Spanier" ISRC DEU240400032 INDEX 00 03:01:49FILE "09. The Lady''s in Love with You.wav" WAVE INDEX 01 00:00:00 TRACK 10 AUDIO TITLE "Tin Roof Blues" PERFORMER "Muggsy Spanier" ISRC DEU240400033 INDEX 00 03:01:33FILE "10. Tin Roof Blues.wav" WAVE INDEX 01 00:00:00 TRACK 11 AUDIO TITLE "Muskrat Ramble" PERFORMER "Muggsy Spanier" ISRC DEU240400034 INDEX 00 02:54:48FILE "11. Muskrat Ramble.wav" WAVE INDEX 01 00:00:00 TRACK 12 AUDIO TITLE "Bugle Call Rag" PERFORMER "Muggsy Spanier" ISRC DEU240400035 INDEX 00 03:04:38FILE "12. Bugle Call Rag.wav" WAVE INDEX 01 00:00:00 TRACK 13 AUDIO TITLE "That''s A Plenty" PERFORMER "Muggsy Spanier" ISRC DEU240400036 INDEX 00 02:55:37FILE "13. That''s A Plenty.wav" WAVE INDEX 01 00:00:00 TRACK 14 AUDIO TITLE "Feather Brain Blues" PERFORMER "Muggsy Spanier" ISRC DEU240400037 INDEX 00 02:52:33FILE "14. Feather Brain Blues.wav" WAVE INDEX 01 00:00:00 TRACK 15 AUDIO TITLE "Lucky To Me" PERFORMER "Muggsy Spanier" ISRC DEU240400038 INDEX 00 03:01:07FILE "15. Lucky To Me.wav" WAVE INDEX 01 00:00:00 TRACK 16 AUDIO TITLE "Tin Roof Blues" PERFORMER "Muggsy Spanier" ISRC DEU240400039 INDEX 00 02:53:65FILE "16. Tin Roof Blues.wav" WAVE INDEX 01 00:00:00 TRACK 17 AUDIO TITLE "Cherry" PERFORMER "Muggsy Spanier" ISRC DEU240400040 INDEX 00 02:56:71FILE "17. Cherry.wav" WAVE INDEX 01 00:00:00 TRACK 18 AUDIO TITLE "China Boy" PERFORMER "Muggsy Spanier" ISRC DEU240400041 INDEX 00 02:41:50FILE "18. China Boy.wav" WAVE INDEX 01 00:00:00 TRACK 19 AUDIO TITLE "You''re Driving Me Crazy" PERFORMER "Muggsy Spanier" ISRC DEU240400042 INDEX 00 04:54:50FILE "19. You''re Driving Me Crazy.wav" WAVE INDEX 01 00:00:00 TRACK 20 AUDIO TITLE "You Took Advantage of Me" PERFORMER "Muggsy Spanier" ISRC DEU240400043 INDEX 00 02:31:54FILE "20. You Took Advantage of Me.wav" WAVE INDEX 01 00:00:00 TRACK 21 AUDIO TITLE "Pee Wee Squawks" PERFORMER "Muggsy Spanier" ISRC DEU240400044 INDEX 00 03:09:05FILE "21. Pee Wee Squawks.wav" WAVE INDEX 01 00:00:00 TRACK 22 AUDIO TITLE "Sentimental Journey" PERFORMER "Muggsy Spanier" ISRC DEU240400045 INDEX 00 02:31:32FILE "22. Sentimental Journey.wav" WAVE INDEX 01 00:00:00 TRACK 23 AUDIO TITLE "Muggsy Special" PERFORMER "Muggsy Spanier" ISRC DEU240400046 INDEX 00 02:46:08FILE "23. Muggsy Special.wav" WAVE INDEX 01 00:00:00


Трекер:  [ 22-Дек-2013 12:45 ]

  

Скачать .torrent

Размер .torrent файла 16 KB


Размер: 552 MB
Хэш (hash) релиза: bc605c1dcb09465946a998e411ed4a11ab7b4d46

Еще никто не оставлял запись к записи скачать торрент . Будь первым!

!Обратная связь