Скачать через торрент музыку Gong Yue - Buddhist Music - 2011, FLAC бесплатно без регистрации torrent

Если у вас наблюдаются проблемы со скриншотами, переходом по ссылками, скачиванием торрентов - проблемы в блокировщике рекламы AdBlock. #хорошегоДня!


Статистика раздачи
Размер:  582 MB   |    Зарегистрирован:  3 года 7 месяцев   |    .torrent скачан:  341 раз   |   
Раздают:  3  
   
Загрузка...
 
Автор Сообщение

Galfimbul

avatar Galfimbul


Gong Yue - Buddhist Music

Жанр: Mantra/Buddhist
Год издания: 2011
Аудиокодек: FLAC (*.flac)
Тип рипа: image+.cue
Битрейт аудио: lossless
Продолжительность: 01:19:25
Источник (релизер): internet
Наличие сканов в содержимом раздачи: да
Треклист:
01. 大悲心陀罗尼经 Greatly Sad Heart Buddhist Charms (24:58)
02. 般若波罗密多心经 Heart Sutra (11:59)
03. 六字大明咒(男女混声唱诵版 Six Words Damengzhou (04:52)
04. 阿弥陀佛在心间 Amitabha Between Heart (08:03)
05. 六字心经 Six Words Heart Sutra (14:54)
06. 观音菩萨偈 The Goddess Of Mercy Is Brave (08:01)
07. 莲花生大师心咒 (经文唱诵:桑昂丹增仁波切)
Guru Padmasambhava Mantra (06:35)
EAC 抓取日志文件从11. 三月 2012, 17:17 用于 CD龚玥 / 梵音佛乐HQCD

使用驱动器 :ASUS DRW-1612BL Adapter: 1 ID: 1读取模式 :不使用 C2,使用精确流, 禁用缓存的安全模式读取偏移校正:6读取 Lead-In 和 Lead-Out : 否

所用输出模式:内部 WAV 函数 44.100 Hz;16 Bit;立体声

其他选项 : 用静音填充抓取中丢失偏移的采样 : 是 去除首尾静音块 : 否 Win NT 及 2000 本地 Win32 接口

范围状态及错误已选择范围 文件名 F:\龚玥 梵音佛乐HQCD\CDImage.wav

峰值电平 100.0 % 范围质量 99.9 % CRC 2C87852B 复制成功

没有错误发生

状态报告结尾
PERFORMER "Gong Yue 龚玥 "TITLE "梵音佛乐HQCD"FILE "Gong Yue - Buddhist Music.wav" WAVE TRACK 01 AUDIO TITLE "大悲心陀罗尼经" INDEX 01 00:00:00 TRACK 02 AUDIO TITLE "般若波罗密多心经" INDEX 01 24:58:03 TRACK 03 AUDIO TITLE "六字大明咒(男女混声唱诵版)" INDEX 01 36:57:65 TRACK 04 AUDIO TITLE "阿弥陀佛在心间" INDEX 01 41:50:00 TRACK 05 AUDIO TITLE "六字心经" INDEX 01 49:53:31 TRACK 06 AUDIO TITLE "观音菩萨偈" INDEX 01 64:48:30 TRACK 07 AUDIO TITLE "莲花生大师心咒" INDEX 01 72:49:56


Трекер:  [ 22-Дек-2013 12:14 ]

  

Скачать .torrent

Размер .torrent файла 13 KB


Размер: 582 MB
Хэш (hash) релиза: 888d3214c7afa2737e1be92cc5e0f07f034354ac

Еще никто не оставлял запись к записи скачать торрент Gong Yue - Buddhist Music - 2011, FLAC . Будь первым!

!Обратная связь