Скачать через торрент музыку бесплатно без регистрации torrent

Если у вас наблюдаются проблемы со скриншотами, переходом по ссылками, скачиванием торрентов - проблемы в блокировщике рекламы AdBlock. #хорошегоДня!


Статистика раздачи
Размер:  184 MB   |    Зарегистрирован:  3 года 7 месяцев   |    .torrent скачан:  269 раз   |   
Раздают:  2  
   
Загрузка...
 
Автор Сообщение

Galfimbul

avatar Galfimbul


Jordan Rudess - Christmas Sky

Жанр: Instrumental, Piano, Christmas
Носитель: WEB
Год издания: 2002
Страна: USA
Аудиокодек: FLAC (*.flac)
Тип рипа: image+.cue
Битрейт аудио: 584 kbps
Продолжительность: 00:43:59
Источник (релизер): Интернет
Наличие сканов в содержимом раздачи: нет

Трек-лист:
01. White Christmas
02. God Rest Ye Merry Gentlemen
03. Silent Night
04. The Little Drummer Boy
05. I Wonder When I Wander
06. The Christmas Song
07. O Holy Night
08. What Child Is This?
09. It Came Upon A Midnight Clear
10. The First Noel
11. Andelusion
Exact Audio Copy V0.99 prebeta 5 from 4. May 2009

Отчёт EAC об извлечении, выполненном 19. декабря 2013, 10:27

Jordan Rudess / Christmas Sky

Дисковод: Optiarc DVD RW AD-7240S Adapter: 2 ID: 0

Режим чтения : ДостоверностьИспользование точного потока : ДаОтключение кэша аудио : ДаИспользование указателей C2 : Нет

Коррекция смещения при чтении : 48Способность читать области Lead-in и Lead-out : НетЗаполнение пропущенных сэмплов тишиной : ДаУдаление блоков с тишиной в начале и конце : НетПри вычислениях CRC использовались нулевые сэмплы : ДаИнтерфейс : Встроенный Win32-интерфейс для Win NT/2000

Выходной формат : Пользовательский кодировщикВыбранный битрейт : 768 kBit/sКачество : ВысокийДобавление ID3-тэга : НетУтилита сжатия : C:\Program Files\Exact Audio Copy\FLAC\FLAC.EXEДополнительные параметры : -6 -V -T "ARTIST=%a" -T "TITLE=%t" -T "ALBUM=%g" -T "DATE=%y" -T "TRACKNUMBER=%n" -T "GENRE=%m" -T "COMMENT=%e" %s -o %d

TOC извлечённого CD

Трек | Старт | Длительность | Начальный сектор | Конечный сектор --------------------------------------------------------------------- 1 | 0:00.00 | 5:31.59 | 0 | 24883 2 | 5:31.59 | 3:20.36 | 24884 | 39919 3 | 8:52.20 | 3:57.40 | 39920 | 57734 4 | 12:49.60 | 3:22.71 | 57735 | 72955 5 | 16:12.56 | 4:32.08 | 72956 | 93363 6 | 20:44.64 | 3:07.48 | 93364 | 107436 7 | 23:52.37 | 4:11.72 | 107437 | 126333 8 | 28:04.34 | 4:02.38 | 126334 | 144521 9 | 32:06.72 | 2:12.72 | 144522 | 154493 10 | 34:19.69 | 4:08.36 | 154494 | 173129 11 | 38:28.30 | 5:30.46 | 173130 | 197925

Характеристики диапазона извлечения и сообщения об ошибках

Выбранный диапазон

Имя файла C:\Jordan Rudess - Christmas Sky.wav

Пиковый уровень 86.0 % Качество диапазона 100.0 % CRC теста EBD0CB05 CRC копии EBD0CB05 Копирование... OK

Ошибок не произошло

Конец отчёта
REM GENRE "Instrumental, Piano, Christmas"REM DATE 2003REM DISCID 8B0A4F0BREM COMMENT "ExactAudioCopy v0.99pb5"PERFORMER "Jordan Rudess"TITLE "Christmas Sky"FILE "Jordan Rudess - Christmas Sky.flac" WAVE TRACK 01 AUDIO TITLE "White Christmas" PERFORMER "Jordan Rudess" FLAGS DCP INDEX 01 00:00:00 TRACK 02 AUDIO TITLE "God Rest Ye Merry Gentlemen" PERFORMER "Jordan Rudess" FLAGS DCP INDEX 01 05:31:59 TRACK 03 AUDIO TITLE "Silent Night" PERFORMER "Jordan Rudess" FLAGS DCP INDEX 01 08:52:20 TRACK 04 AUDIO TITLE "The Little Drummer Boy" PERFORMER "Jordan Rudess" FLAGS DCP INDEX 01 12:49:60 TRACK 05 AUDIO TITLE "I Wonder When I Wander" PERFORMER "Jordan Rudess" FLAGS DCP INDEX 01 16:12:56 TRACK 06 AUDIO TITLE "The Christmas Song" PERFORMER "Jordan Rudess" FLAGS DCP INDEX 01 20:44:64 TRACK 07 AUDIO TITLE "O Holy Night" PERFORMER "Jordan Rudess" FLAGS DCP INDEX 01 23:52:37 TRACK 08 AUDIO TITLE "What Child Is This?" PERFORMER "Jordan Rudess" FLAGS DCP INDEX 01 28:04:34 TRACK 09 AUDIO TITLE "It Came Upon A Midnight Clear" PERFORMER "Jordan Rudess" FLAGS DCP INDEX 01 32:06:72 TRACK 10 AUDIO TITLE "The First Noel" PERFORMER "Jordan Rudess" FLAGS DCP INDEX 01 34:19:69 TRACK 11 AUDIO TITLE "Andelusion" PERFORMER "Jordan Rudess" FLAGS DCP INDEX 01 38:28:30
-----------------------

DON''T MODIFY THIS FILE

-----------------------

PERFORMER: auCDtect Task Manager, ver. 1.5.1RC4 build 1.5.1.5Copyright (c) 2008-2010 y-soft. All rights reservedhttp://y-soft.org

ANALYZER: auCDtect: CD records authenticity detector, version 0.8.2Copyright (c) 2004 Oleg Berngardt. All rights reserved.Copyright (c) 2004 Alexander Djourik. All rights reserved.

FILE: Jordan Rudess - Christmas Sky.flac Size: 192801124 Hash: C5BBF79147FB96F3D6C7A3C1842A7E81 Accuracy: -m0 Conclusion: CDDA 100% Signature: 7B2AD8221F10B6F3747A2898F509D00B3370A84F


Трекер:  [ 22-Дек-2013 12:13 ]

  

Скачать .torrent

Размер .torrent файла 15 KB


Размер: 184 MB
Хэш (hash) релиза: e8911c37c4431dfb4c9653f21df029d0b67f4763

Еще никто не оставлял запись к записи скачать торрент . Будь первым!

!Обратная связь