Скачать через торрент музыку Amy Winehouse - Frank - 2003, FLAC бесплатно без регистрации torrent

Если у вас наблюдаются проблемы со скриншотами, переходом по ссылками, скачиванием торрентов - проблемы в блокировщике рекламы AdBlock. #хорошегоДня!


Статистика раздачи
Размер:  358 MB   |    Зарегистрирован:  6 лет 8 месяцев   |    .torrent скачан:  94 раза   |   
Раздают:  1  
   
Загрузка...
 
Автор Сообщение

Bombardier545

avatar Bombardier545


Amy Winehouse - Frank


Страна: UK
Жанр: Soul / Jazz / R&B
Год выпуска: 2003
Формат: FLAC (*.flac)
Тип рипа: tracks+.cue
Битрейт аудио: lossless
Продолжительность: 58:41

Трэклист:


01. Intro / Stronger Than Me
02. You Sent Me Flying
03. Know You Now
04. Fuck Me Pumps
05. I Heard Love Is Blind
06. Moody's Mood For Love
07. (There Is) No Greater Love
08. In My Bed
09. Take The Box
10. October Song
11. What It Is About Men
12. Help Yourself
13. Amy Amy Amy / Outro
EAC extraction logfile from 9. August 2007, 3:56 for CD
Amy Winehouse / Frank

Used drive : _NEC DVD_RW ND-2510A Adapter: 1 ID: 0
Read mode : Secure with NO C2, accurate stream, disable cache
Read offset correction : 48
Overread into Lead-In and Lead-Out : No

Used output format : C:\Program Files\FLAC\flac.exe (User Defined Encoder)
192 kBit/s
Additional command line options : -8 -A tukey(0.25) -A gauss(0.1875) -b 4096 -V -T "artist=%a" -T "title=%t" -T "album=%g" -T "date=%y" -T "tracknumber=%n" -T "genre=%m" %s --sector-align

Other options :
Fill up missing offset samples with silence : Yes
Delete leading and trailing silent blocks : No
Installed external ASPI interface

Track 1
Filename C:\wip\New Folder\01 - Amy Winehouse - Intro , Stronger Than Me .wav

Pre-gap length 0:00:02.00

Peak level 99.9 %
Track quality 100.0 %
Test CRC 2E5DEF9E
Copy CRC 2E5DEF9E
Copy OK

Track 2
Filename C:\wip\New Folder\02 - Amy Winehouse - You Sent Me Flying .wav

Pre-gap length 0:00:00.32

Peak level 99.8 %
Track quality 99.9 %
Test CRC 8A1B580E
Copy CRC 8A1B580E
Copy OK

Track 3
Filename C:\wip\New Folder\03 - Amy Winehouse - Know You Now .wav

Pre-gap length 0:00:00.85

Peak level 99.8 %
Track quality 99.9 %
Test CRC C5F71DF0
Copy CRC C5F71DF0
Copy OK

Track 4
Filename C:\wip\New Folder\04 - Amy Winehouse - Fuck Me Pumps .wav

Pre-gap length 0:00:00.46

Peak level 99.8 %
Track quality 100.0 %
Test CRC DA7DAC8B
Copy CRC DA7DAC8B
Copy OK

Track 5
Filename C:\wip\New Folder\05 - Amy Winehouse - I Heard Love Is Blind .wav

Peak level 99.8 %
Track quality 100.0 %
Test CRC EE12431B
Copy CRC EE12431B
Copy OK

Track 6
Filename C:\wip\New Folder\06 - Amy Winehouse - Moody's Mood For Love .wav

Pre-gap length 0:00:00.41

Peak level 99.8 %
Track quality 100.0 %
Test CRC BF8DCD98
Copy CRC BF8DCD98
Copy OK

Track 7
Filename C:\wip\New Folder\07 - Amy Winehouse - (There Is) No Greater Love .wav

Peak level 99.8 %
Track quality 100.0 %
Test CRC 2EC1FE76
Copy CRC 2EC1FE76
Copy OK

Track 8
Filename C:\wip\New Folder\08 - Amy Winehouse - In My Bed .wav

Pre-gap length 0:00:00.38

Peak level 99.8 %
Track quality 100.0 %
Test CRC 9641DE8C
Copy CRC 9641DE8C
Copy OK

Track 9
Filename C:\wip\New Folder\09 - Amy Winehouse - Take The Box .wav

Pre-gap length 0:00:00.89

Peak level 99.8 %
Track quality 100.0 %
Test CRC 0F9BAC6A
Copy CRC 0F9BAC6A
Copy OK

Track 10
Filename C:\wip\New Folder\10 - Amy Winehouse - October Song .wav

Pre-gap length 0:00:00.88

Peak level 99.9 %
Track quality 100.0 %
Test CRC B468BB00
Copy CRC B468BB00
Copy OK

Track 11
Filename C:\wip\New Folder\11 - Amy Winehouse - What It Is About Men .wav

Peak level 99.8 %
Track quality 100.0 %
Test CRC 1FC24130
Copy CRC 1FC24130
Copy OK

Track 12
Filename C:\wip\New Folder\12 - Amy Winehouse - Help Yourself .wav

Peak level 99.9 %
Track quality 100.0 %
Test CRC EEF1FD46
Copy CRC EEF1FD46
Copy OK

Track 13
Filename C:\wip\New Folder\13 - Amy Winehouse - Amy Amy Amy , Outro .wav

Peak level 99.8 %
Track quality 100.0 %
Test CRC D7F5E0AB
Copy CRC D7F5E0AB
Copy OK

No errors occured

End of status report
REM GENRE R&B
REM DATE 2003
REM DISCID 8F0DC60D
REM COMMENT "ExactAudioCopy v0.95b3"
PERFORMER "Amy Winehouse"
TITLE "Frank"
FILE "01 - Amy Winehouse - Intro , Stronger Than Me .wav" WAVE
TRACK 01 AUDIO
TITLE "Intro / Stronger Than Me"
PERFORMER "Amy Winehouse"
INDEX 01 00:00:00
TRACK 02 AUDIO
TITLE "You Sent Me Flying"
PERFORMER "Amy Winehouse"
INDEX 00 03:54:15
FILE "02 - Amy Winehouse - You Sent Me Flying .wav" WAVE
INDEX 01 00:00:00
TRACK 03 AUDIO
TITLE "Know You Now"
PERFORMER "Amy Winehouse"
INDEX 00 06:49:68
FILE "03 - Amy Winehouse - Know You Now .wav" WAVE
INDEX 01 00:00:00
TRACK 04 AUDIO
TITLE "Fuck Me Pumps"
PERFORMER "Amy Winehouse"
INDEX 00 03:02:59
FILE "04 - Amy Winehouse - Fuck Me Pumps .wav" WAVE
INDEX 01 00:00:00
FILE "05 - Amy Winehouse - I Heard Love Is Blind .wav" WAVE
TRACK 05 AUDIO
TITLE "I Heard Love Is Blind"
PERFORMER "Amy Winehouse"
INDEX 01 00:00:00
TRACK 06 AUDIO
TITLE "Moody's Mood For Love"
PERFORMER "Amy Winehouse"
INDEX 00 02:09:50
FILE "06 - Amy Winehouse - Moody's Mood For Love .wav" WAVE
INDEX 01 00:00:00
FILE "07 - Amy Winehouse - (There Is) No Greater Love .wav" WAVE
TRACK 07 AUDIO
TITLE "(There Is) No Greater Love"
PERFORMER "Amy Winehouse"
INDEX 01 00:00:00
TRACK 08 AUDIO
TITLE "In My Bed"
PERFORMER "Amy Winehouse"
INDEX 00 02:08:41
FILE "08 - Amy Winehouse - In My Bed .wav" WAVE
INDEX 01 00:00:00
TRACK 09 AUDIO
TITLE "Take The Box"
PERFORMER "Amy Winehouse"
INDEX 00 05:16:09
FILE "09 - Amy Winehouse - Take The Box .wav" WAVE
INDEX 01 00:00:00
TRACK 10 AUDIO
TITLE "October Song"
PERFORMER "Amy Winehouse"
INDEX 00 03:19:23
FILE "10 - Amy Winehouse - October Song .wav" WAVE
INDEX 01 00:00:00
FILE "11 - Amy Winehouse - What It Is About Men .wav" WAVE
TRACK 11 AUDIO
TITLE "What It Is About Men"
PERFORMER "Amy Winehouse"
INDEX 01 00:00:00
FILE "12 - Amy Winehouse - Help Yourself .wav" WAVE
TRACK 12 AUDIO
TITLE "Help Yourself"
PERFORMER "Amy Winehouse"
INDEX 01 00:00:00
FILE "13 - Amy Winehouse - Amy Amy Amy , Outro .wav" WAVE
TRACK 13 AUDIO
TITLE "Amy Amy Amy / Outro"
PERFORMER "Amy Winehouse"
INDEX 01 00:00:00


Трекер:  [ 25-Янв-2011 00:53 ]

  

Скачать .torrent

Размер .torrent файла 16 KB


Размер: 358 MB
Хэш (hash) релиза: c9a498a529269b7e5ec75b5dbfa15c0350bb80f9

Еще никто не оставлял запись к записи скачать торрент Amy Winehouse - Frank - 2003, FLAC . Будь первым!

!Обратная связь