Скачать через торрент музыку Artur Dutkiewicz Trio бесплатно без регистрации torrent

Если у вас наблюдаются проблемы со скриншотами, переходом по ссылками, скачиванием торрентов - проблемы в блокировщике рекламы AdBlock. #хорошегоДня!


Статистика раздачи
Размер:  1.03 GB   |    Зарегистрирован:  3 года 8 месяцев   |    .torrent скачан:  46 раз   |   
Раздают:  1  
   
Загрузка...
 
Автор Сообщение

Galfimbul

avatar Galfimbul


ARTUR DUTKIEWICZ TRIO
Niemen improwizacje




Жанр: Post-Bop / Contemporary Jazz
Продолжительность: 00:39:30
Год выпуска: 2009

Musicians:

ARTUR DUTKIEWICZ - piano
DAREK OLESZKIEWICZ - double bass
SEBASTIAN FRANKIEWICZ - drums

Треклист:

Track List:
1. Zabawa w Ciuciubabkę (Cz. Niemen / arr. A. Dutkiewicz)
2. Bema Pamięci Rapsod (Cz. Niemen / arr. A. Dutkiewicz)
3. Czy mnie Jeszcze Pamiętasz? (Cz. Niemen / arr. A. Dutkiewicz)
4. Jednego Serca (Cz. Niemen / arr. A. Dutkiewicz)
5. Stoję w Oknie (Cz. Niemen / arr. A. Dutkiewicz)
6. Pod Papugami (M. Święcicki / arr. A. Dutkiewicz

Качество: SATRip
Контейнер: TS
Видео кодек: MPEG2
Аудио кодек: AC3
Видео: 2 978 Kbps, 720*576 (16:9), at 25.000 fps, MPEG Video (PAL) (Version 2) (Main@Main) (CustomMatrix / BVOP)
Аудио: Polish, 192 Kbps, 48.0 KHz, 2 channels, MPEG Audio (Version 1) (Layer 2)
Аудио 2: qaa, 384 Kbps, 48.0 KHz, 16 bits, 2 channels, AC-3
Источник: Digital Satellite > SkyStar HD2 (TechniSat) > ts > raw data to HDD > Cypheros TS-Doctor > VideoReDo TVSuite v4 (cut) > ts
GeneralID : 1 (0x1)Complete name : C:\rutracker.org_mpg\Artur Dutkiewicz Trio - Niemen improwizacje (2009).tsFormat : MPEG-TSFile size : 1.03 GiBDuration : 39mn 31sOverall bit rate mode : VariableOverall bit rate : 3 745 Kbps

VideoID : 518 (0x206)Menu ID : 1 (0x1)Format : MPEG VideoFormat version : Version 2Format profile : Main@MainFormat settings, BVOP : YesFormat settings, Matrix : CustomFormat settings, GOP : M=4, N=12Codec ID : 2Duration : 39mn 30sBit rate mode : VariableBit rate : 2 978 KbpsMaximum bit rate : 10 000 KbpsWidth : 720 pixelsHeight : 576 pixelsDisplay aspect ratio : 16:9Frame rate : 25.000 fpsStandard : PALColor space : YUVChroma subsampling : 4:2:0Bit depth : 8 bitsScan type : InterlacedScan order : Top Field FirstCompression mode : LossyBits/(Pixel*Frame) : 0.287Time code of first frame : 00:00:00:00Time code source : Group of pictures headerStream size : 842 MiB (80%)

Audio #1ID : 710 (0x2C6)Menu ID : 1 (0x1)Format : MPEG AudioFormat version : Version 1Format profile : Layer 2Codec ID : 3Duration : 39mn 30sBit rate mode : ConstantBit rate : 192 KbpsChannel(s) : 2 channelsSampling rate : 48.0 KHzCompression mode : LossyDelay relative to video : 20msStream size : 54.3 MiB (5%)Language : Polish

Audio #2ID : 711 (0x2C7)Menu ID : 1 (0x1)Format : AC-3Format/Info : Audio Coding 3Mode extension : CM (complete main)Format settings, Endianness : BigCodec ID : 6Duration : 39mn 30sBit rate mode : ConstantBit rate : 384 KbpsChannel(s) : 2 channelsChannel positions : Front: L RSampling rate : 48.0 KHzBit depth : 16 bitsCompression mode : LossyDelay relative to video : 7msStream size : 109 MiB (10%)Language : qaa


Трекер:  [ 21-Дек-2013 17:58 ]

  

Скачать .torrent

Размер .torrent файла 11 KB


Размер: 1.03 GB
Хэш (hash) релиза: 9ffafa045d25829fe35ef81edd2c29e8caaad5bc

Еще никто не оставлял запись к записи скачать торрент Artur Dutkiewicz Trio . Будь первым!

!Обратная связь