Скачать через торрент музыку Repercussions - Earth And Heaven - 1995, FLAC бесплатно без регистрации torrent

Если у вас наблюдаются проблемы со скриншотами, переходом по ссылками, скачиванием торрентов - проблемы в блокировщике рекламы AdBlock. #хорошегоДня!


Статистика раздачи
Размер:  325 MB   |    Зарегистрирован:  3 года 9 месяцев   |    .torrent скачан:  121 раз   |   
Раздают:  1  
   
Загрузка...
 
Автор Сообщение

Galfimbul

avatar Galfimbul


Repercussions / Earth And Heaven

Жанр: acid jazz, funk
Страна-производитель диска: USA
Год издания диска: 1995
Издатель (лейбл): Warner Bros.
Номер по каталогу: 945644-2
Страна: USA
Аудиокодек: FLAC (*.flac)
Тип рипа: image+.cue
Битрейт аудио: lossless
Продолжительность: 48:05
Источник (релизер): CD
Наличие сканов в содержимом раздачи: да
Треклист:
01 Find Your Way
02 Test of Time
03 Turn Your Card
04 Promise Me Nothing
05 Slice of Heaven
06 It''s a New Day
07 Keeping It All Together
08 Love Like the Sun
09 A Gentle Kind of Love
10 If There''s a Question
Exact Audio Copy V1.0 beta 2 from 29. April 2011

Отчёт EAC об извлечении, выполненном 21. декабря 2013, 16:26

Repercussions / Earth And Heaven

Дисковод: PLEXTOR BDDVDRPX-B330SA Adapter: 0 ID: 1

Режим чтения : ДостоверностьИспользование точного потока : ДаОтключение кэша аудио : ДаИспользование указателей C2 : Нет

Коррекция смещения при чтении : 702Способность читать области Lead-in и Lead-out : НетЗаполнение пропущенных сэмплов тишиной : ДаУдаление блоков с тишиной в начале и конце : НетПри вычислениях CRC использовались нулевые сэмплы : ДаИнтерфейс : Встроенный Win32-интерфейс для Win NT/2000

Выходной формат : Пользовательский кодировщикВыбранный битрейт : 128 kBit/sКачество : ВысокийДобавление ID3-тега : НетУтилита сжатия : C:\Program Files\Exact Audio Copy\FLAC\FLAC.EXEДополнительные параметры : -6 -V -T "ARTIST=%artist%" -T "TITLE=%title%" -T "ALBUM=%albumtitle%" -T "DATE=%year%" -T "TRACKNUMBER=%tracknr%" -T "GENRE=%genre%" -T "COMMENT=%comment%" -T "BAND=%albuminterpret%" -T "COMPOSER=%composer%" %haslyrics%--tag-from-

TOC извлечённого CD

Трек | Старт | Длительность | Начальный сектор | Конечный сектор --------------------------------------------------------------------- 1 | 0:00.32 | 4:04.23 | 32 | 18354 2 | 4:04.55 | 5:15.60 | 18355 | 42039 3 | 9:20.40 | 4:23.10 | 42040 | 61774 4 | 13:43.50 | 4:37.65 | 61775 | 82614 5 | 18:21.40 | 4:16.57 | 82615 | 101871 6 | 22:38.22 | 3:47.05 | 101872 | 118901 7 | 26:25.27 | 4:44.63 | 118902 | 140264 8 | 31:10.15 | 6:03.42 | 140265 | 167531 9 | 37:13.57 | 5:09.60 | 167532 | 190766 10 | 42:23.42 | 5:42.50 | 190767 | 216466

Характеристики диапазона извлечения и сообщения об ошибках

Выбранный диапазон

Имя файла D:\FLAC\Repercussions - Earth And Heaven.wav

Пиковый уровень 100.0 % Скорость извлечения 1.2 X Качество диапазона 99.9 % CRC теста F1B96324 CRC копии F1B96324 Копирование... OK

Ошибок не произошло

AccurateRip: сводка

Трек 1 : извлечено точно (доверие 5) [37F95964] (AR v2)Трек 2 : извлечено точно (доверие 5) [38C0512B] (AR v2)Трек 3 : извлечено точно (доверие 5) [CDD45318] (AR v2)Трек 4 : извлечено точно (доверие 5) [D68EAF9B] (AR v2)Трек 5 : извлечено точно (доверие 5) [7D52889E] (AR v2)Трек 6 : извлечено точно (доверие 5) [2D29B3E1] (AR v2)Трек 7 : извлечено точно (доверие 5) [F5083F9E] (AR v2)Трек 8 : извлечено точно (доверие 5) [2508BF37] (AR v2)Трек 9 : извлечено точно (доверие 5) [508A6942] (AR v2)Трек 10 : извлечено точно (доверие 4) [3D8C6FD3] (AR v2)

Все треки извлечены точно

Конец отчёта

==== Контрольная сумма отчёта EDDA25C376877919800EC084F5B0A29BC531EF50DFFFFD891456AE04B0CFEAC0 ====


Трекер:  [ 21-Дек-2013 16:47 ]

  

Скачать .torrent

Размер .torrent файла 13 KB


Размер: 325 MB
Хэш (hash) релиза: 2e709d963acd4d97fc0e4bf12fda5cc8a8b6c109

Еще никто не оставлял запись к записи скачать торрент Repercussions - Earth And Heaven - 1995, FLAC . Будь первым!

!Обратная связь