Скачать через торрент музыку бесплатно без регистрации torrent

Если у вас наблюдаются проблемы со скриншотами, переходом по ссылками, скачиванием торрентов - проблемы в блокировщике рекламы AdBlock. #хорошегоДня!


Статистика раздачи
Размер:  6.8 GB   |    Зарегистрирован:  3 года 9 месяцев   |    .torrent скачан:  114 раз   |   
Раздают:  1  
   
Загрузка...
 
Автор Сообщение

Galfimbul

avatar Galfimbul


Best Of Blues
100 Legendare Musiker

30 CD-Set (631 Tracks)

Жанр: Blues
Носитель: CD
Год издания: 2011
Аудиокодек: FLAC (*.flac)
Тип рипа: image+.cue
Битрейт аудио: lossless
Продолжительность: ~
Источник (релизер): HaRDstuff.ws | RD (спасибо)
Наличие сканов в содержимом раздачи: да
01 Backfence Picket Blues
02 Fool Man Blues - Kokomo Arnold
03 Long And Tall - Kokomo Arnold
04 Sally Dog - Kokomo Arnold
05 Cold Winter Blues - Kokomo Arnold
06 Sister Jane Cross The Hall - Kokomo Arnold
07 Wild Water Blues - Kokomo Arnold
08 My Heart Is Crying - Billy Boy Arnold
09 I Ain''t Got You - Billy Boy Arnold
10 Here’s My Picture - Billy Boy Arnold
11 You Got Me Wrong - Billy Boy Arnold
12 Prisoner''s Plea - Billy Boy Arnold
13 No, No, No,No, No - Billy Boy Arnold
14 Rockinitis - Billy Boy Arnold
15 Louie, Louie - Richard Berry
16 Sweet Sugar You - Richard Berry
17 You Look So Good - Richard Berry
18 Mess Around - Richard Berry
19 No Room - Richard Berry
20 I Want You To Be My Girl - Richard Berry
21 I’m Your Fool - Richard Berry
Exact Audio Copy V1.0 beta 3 from 29. August 2011

EAC extraction logfile from 18. December 2013, 7:25

Various Artists / Best Of Blues 100 legendäre Musiker CD01 (30 CD-Set) (885150332979)

Used drive : PLEXTOR BD-R PX-B940SA Adapter: 0 ID: 5

Read mode : SecureUtilize accurate stream : YesDefeat audio cache : YesMake use of C2 pointers : No

Read offset correction : 667Overread into Lead-In and Lead-Out : NoFill up missing offset samples with silence : YesDelete leading and trailing silent blocks : NoNull samples used in CRC calculations : YesUsed interface : Installed external ASPI interface

Used output format : User Defined EncoderSelected bitrate : 1024 kBit/sQuality : HighAdd ID3 tag : YesCommand line compressor : E:\Program Files (x86)\Exact Audio Copy\Flac\flac.exeAdditional command line options : -V -8 -T "Date=%year%" -T "Genre=%genre%" %source%

TOC of the extracted CD

Track | Start | Length | Start sector | End sector --------------------------------------------------------- 1 | 0:00.00 | 3:07.41 | 0 | 14065 2 | 3:07.41 | 3:07.41 | 14066 | 28131 3 | 6:15.07 | 2:47.35 | 28132 | 40691 4 | 9:02.42 | 2:49.41 | 40692 | 53407 5 | 11:52.08 | 3:10.46 | 53408 | 67703 6 | 15:02.54 | 2:40.15 | 67704 | 79718 7 | 17:42.69 | 3:14.32 | 79719 | 94300 8 | 20:57.26 | 2:09.63 | 94301 | 104038 9 | 23:07.14 | 2:14.60 | 104039 | 114148 10 | 25:21.74 | 2:11.32 | 114149 | 124005 11 | 27:33.31 | 2:40.07 | 124006 | 136012 12 | 30:13.38 | 2:50.32 | 136013 | 148794 13 | 33:03.70 | 2:35.64 | 148795 | 160483 14 | 35:39.59 | 2:39.58 | 160484 | 172466 15 | 38:19.42 | 2:16.26 | 172467 | 182692 16 | 40:35.68 | 2:49.56 | 182693 | 195423 17 | 43:25.49 | 2:20.61 | 195424 | 205984 18 | 45:46.35 | 2:38.11 | 205985 | 217845 19 | 48:24.46 | 3:17.14 | 217846 | 232634 20 | 51:41.60 | 3:21.21 | 232635 | 247730 21 | 55:03.06 | 2:56.62 | 247731 | 260992

Range status and errors

Selected range

Filename D:\MUSIC\Various Artists - Best Of Blues 100 legendäre Musiker CD01 (30 CD-Set) (885150332979).wav

Peak level 100.0 % Extraction speed 4.8 X Range quality 100.0 % Test CRC BF88536C Copy CRC BF88536C Copy OK

No errors occurred

AccurateRip summary

Track 1 accurately ripped (confidence 1) [CD52F9F3] (AR v2)Track 2 accurately ripped (confidence 1) [5E0B3488] (AR v2)Track 3 accurately ripped (confidence 1) [3B761A57] (AR v2)Track 4 accurately ripped (confidence 1) [E3A63C43] (AR v2)Track 5 accurately ripped (confidence 1) [B02D267F] (AR v2)Track 6 accurately ripped (confidence 1) [D927C0FF] (AR v2)Track 7 accurately ripped (confidence 1) [53022E9B] (AR v2)Track 8 accurately ripped (confidence 1) [2747E91D] (AR v2)Track 9 accurately ripped (confidence 1) [1D179E0F] (AR v2)Track 10 accurately ripped (confidence 1) [3EF0937C] (AR v2)Track 11 accurately ripped (confidence 1) [EF7B4EF3] (AR v2)Track 12 accurately ripped (confidence 1) [15091F08] (AR v2)Track 13 accurately ripped (confidence 1) [C10B2EDC] (AR v2)Track 14 accurately ripped (confidence 1) [A7487579] (AR v2)Track 15 accurately ripped (confidence 1) [6AE64207] (AR v2)Track 16 accurately ripped (confidence 1) [F2BAD051] (AR v2)Track 17 accurately ripped (confidence 1) [17FB15C8] (AR v2)Track 18 accurately ripped (confidence 1) [9E02E85A] (AR v2)Track 19 accurately ripped (confidence 1) [6BB8D2A3] (AR v2)Track 20 accurately ripped (confidence 1) [ACEF2A65] (AR v2)Track 21 accurately ripped (confidence 1) [3955B30F] (AR v2)

All tracks accurately ripped

End of status report

==== Log checksum E862D1AC9E7894FBD9AA5E0B550F9AE62D569E724A08D5F5F5C41173D005B802 ====
01 Yo Yo Blues - Barbecue Bob
02 California Blues - Barbecue Bob
03 Motherless Chiles Blues - Barbecue Bob
04 She’s Coming Back Some Cold Rainy Day - Barbecue Bob
05 Barbecue Blues - Barbecue Bob
06 Ease It To Me Blues - Barbecue Bob
07 Chocolate To The Bone - Barbecue Bob
08 It’s My Life, Baby - "bobby ""blue"" Bland"
09 Honey Bee - "bobby ""blue"" Bland"
10 Lost Lover Blues - "bobby ""blue"" Bland"
11 You’ve Got Bad Intentions - "bobby ""blue"" Bland"
12 You Did Me Wrong - "bobby ""blue"" Bland"
13 Last Night - "bobby ""blue"" Bland"
14 Wise Man’s Blues - "bobby ""blue"" Bland"
15 Driftin’ Blues - Charlie Brown
16 Trouble Blues - Charlie Brown
17 Gettin’ All Wet - Charlie Brown
18 Black Night - Charlie Brown
19 Hard Times Blues - Charlie Brown
20 Cryin’ Won''t Help You - Charlie Brown
21 Merry Christmas, Baby - Charlie Brown
Exact Audio Copy V1.0 beta 3 from 29. August 2011

EAC extraction logfile from 18. December 2013, 6:38

Various Artists / Best Of Blues 100 legendäre Musiker CD02 (30 CD-Set) (885150332979)

Used drive : PLEXTOR BD-R PX-B940SA Adapter: 0 ID: 5

Read mode : SecureUtilize accurate stream : YesDefeat audio cache : YesMake use of C2 pointers : No

Read offset correction : 667Overread into Lead-In and Lead-Out : NoFill up missing offset samples with silence : YesDelete leading and trailing silent blocks : NoNull samples used in CRC calculations : YesUsed interface : Installed external ASPI interface

Used output format : User Defined EncoderSelected bitrate : 1024 kBit/sQuality : HighAdd ID3 tag : YesCommand line compressor : E:\Program Files (x86)\Exact Audio Copy\Flac\flac.exeAdditional command line options : -V -8 -T "Date=%year%" -T "Genre=%genre%" %source%

TOC of the extracted CD

Track | Start | Length | Start sector | End sector --------------------------------------------------------- 1 | 0:00.00 | 3:00.07 | 0 | 13506 2 | 3:00.07 | 3:00.64 | 13507 | 27070 3 | 6:00.71 | 3:17.08 | 27071 | 41853 4 | 9:18.04 | 3:08.44 | 41854 | 55997 5 | 12:26.48 | 3:15.20 | 55998 | 70642 6 | 15:41.68 | 3:02.08 | 70643 | 84300 7 | 18:44.01 | 2:55.40 | 84301 | 97465 8 | 21:39.41 | 2:46.06 | 97466 | 109921 9 | 24:25.47 | 2:31.14 | 109922 | 121260 10 | 26:56.61 | 2:38.03 | 121261 | 133113 11 | 29:34.64 | 2:33.19 | 133114 | 144607 12 | 32:08.08 | 2:37.36 | 144608 | 156418 13 | 34:45.44 | 2:54.74 | 156419 | 169542 14 | 37:40.43 | 2:52.33 | 169543 | 182475 15 | 40:33.01 | 3:16.31 | 182476 | 197206 16 | 43:49.32 | 2:24.14 | 197207 | 208020 17 | 46:13.46 | 3:04.21 | 208021 | 221841 18 | 49:17.67 | 3:09.66 | 221842 | 236082 19 | 52:27.58 | 3:11.69 | 236083 | 250476 20 | 55:39.52 | 2:44.31 | 250477 | 262807 21 | 58:24.08 | 2:53.63 | 262808 | 275845

Range status and errors

Selected range

Filename D:\MUSIC\Various Artists - Best Of Blues 100 legendäre Musiker CD02 (30 CD-Set) (885150332979).wav

Peak level 100.0 % Extraction speed 4.8 X Range quality 99.9 % Test CRC F2121DE3 Copy CRC F2121DE3 Copy OK

No errors occurred

AccurateRip summary

Track 1 accurately ripped (confidence 1) [0C0CF9D1] (AR v2)Track 2 accurately ripped (confidence 1) [74326B4A] (AR v2)Track 3 accurately ripped (confidence 1) [1C57ED40] (AR v2)Track 4 accurately ripped (confidence 1) [FF963CE4] (AR v2)Track 5 accurately ripped (confidence 1) [9B9D0283] (AR v2)Track 6 accurately ripped (confidence 1) [F5F3CA08] (AR v2)Track 7 accurately ripped (confidence 1) [8A03B5DC] (AR v2)Track 8 accurately ripped (confidence 1) [C81039CD] (AR v2)Track 9 accurately ripped (confidence 1) [A26627FB] (AR v2)Track 10 accurately ripped (confidence 1) [9AA333D7] (AR v2)Track 11 accurately ripped (confidence 1) [D9BFFE4D] (AR v2)Track 12 accurately ripped (confidence 1) [276FE12E] (AR v2)Track 13 accurately ripped (confidence 1) [724B0234] (AR v2)Track 14 accurately ripped (confidence 1) [41E6A354] (AR v2)Track 15 accurately ripped (confidence 1) [9E5CC9A1] (AR v2)Track 16 accurately ripped (confidence 1) [F2598EF3] (AR v2)Track 17 accurately ripped (confidence 1) [8D67DBCA] (AR v2)Track 18 accurately ripped (confidence 1) [13134513] (AR v2)Track 19 accurately ripped (confidence 1) [4BF1BAED] (AR v2)Track 20 accurately ripped (confidence 1) [0835EAFF] (AR v2)Track 21 accurately ripped (confidence 1) [A15B67C0] (AR v2)

All tracks accurately ripped

End of status report

==== Log checksum 8D9A634AD70A363381B38C7B1CD8891D6DF53BEB40E2819903A968DF04F1A91B ====
01 Midnight Hour - "clarince ""gatemouth"" Brown"
02 Ain’t That Dandy - "clarince ""gatemouth"" Brown"
03 Dirty Work At The Crossroads - "clarince ""gatemouth"" Brown"
04 Hurry Back Good News - "clarince ""gatemouth"" Brown"
05 Okie Dokie Stomp - "clarince ""gatemouth"" Brown"
06 Just Before Dawn - "clarince ""gatemouth"" Brown"
07 Depression Blues - "clarince ""gatemouth"" Brown"
08 Trombone Man Blues - Blue Lu Barker
09 Here’s A Little Girl - Blue Lu Barker
10 A Little Bird Told Me - Blue Lu Barker
11 What Did You Do To Me? - Blue Lu Barker
12 Leave My Man Alone - Blue Lu Barker
13 Now You’re Down In The Alley - Blue Lu Barker
14 Bow Legged Daddy - Blue Lu Barker
15 Mississippi River Blues - Big Bill Broonzy
16 Long Tall Mama - Big Bill Broonzy
17 Worrying You Off My Mind (Part 1) - Big Bill Broonzy
18 Rising Sun Shine On - Big Bill Broonzy
19 Good Jelly - Big Bill Broonzy
20 How You Want It Done - Big Bill Broonzy
21 Hattie Blues - Big Bill Broonzy
22 Kokomo Blues - Big Bill Broonzy
Exact Audio Copy V1.0 beta 3 from 29. August 2011

EAC extraction logfile from 18. December 2013, 6:38

Various Artists / Best Of Blues 100 legendäre Musiker CD03 (30 CD-Set) (885150332979)

Used drive : PLEXTOR DVDR PX-860A Adapter: 0 ID: 4

Read mode : SecureUtilize accurate stream : YesDefeat audio cache : YesMake use of C2 pointers : No

Read offset correction : 96Overread into Lead-In and Lead-Out : NoFill up missing offset samples with silence : YesDelete leading and trailing silent blocks : NoNull samples used in CRC calculations : YesUsed interface : Installed external ASPI interface

Used output format : User Defined EncoderSelected bitrate : 1024 kBit/sQuality : HighAdd ID3 tag : YesCommand line compressor : E:\Program Files (x86)\Exact Audio Copy\Flac\flac.exeAdditional command line options : -V -8 -T "Date=%year%" -T "Genre=%genre%" %source%

TOC of the extracted CD

Track | Start | Length | Start sector | End sector --------------------------------------------------------- 1 | 0:00.00 | 2:46.74 | 0 | 12523 2 | 2:46.74 | 2:53.72 | 12524 | 25570 3 | 5:40.71 | 2:48.72 | 25571 | 38242 4 | 8:29.68 | 2:47.72 | 38243 | 50839 5 | 11:17.65 | 2:35.35 | 50840 | 62499 6 | 13:53.25 | 2:10.72 | 62500 | 72321 7 | 16:04.22 | 2:56.72 | 72322 | 85593 8 | 19:01.19 | 2:53.05 | 85594 | 98573 9 | 21:54.24 | 3:16.06 | 98574 | 113279 10 | 25:10.30 | 2:13.40 | 113280 | 123294 11 | 27:23.70 | 2:34.66 | 123295 | 134910 12 | 29:58.61 | 2:32.73 | 134911 | 146383 13 | 32:31.59 | 2:36.64 | 146384 | 158147 14 | 35:08.48 | 2:51.40 | 158148 | 171012 15 | 38:00.13 | 2:43.22 | 171013 | 183259 16 | 40:43.35 | 2:49.55 | 183260 | 195989 17 | 43:33.15 | 3:06.38 | 195990 | 209977 18 | 46:39.53 | 3:11.61 | 209978 | 224363 19 | 49:51.39 | 3:18.66 | 224364 | 239279 20 | 53:10.30 | 2:52.41 | 239280 | 252220 21 | 56:02.71 | 2:45.35 | 252221 | 264630 22 | 58:48.31 | 3:04.23 | 264631 | 278453

Range status and errors

Selected range

Filename D:\MUSIC\Various Artists - Best Of Blues 100 legendäre Musiker CD03 (30 CD-Set) (885150332979).wav

Peak level 100.0 % Extraction speed 7.8 X Range quality 99.9 % Test CRC 014EA0B5 Copy CRC 014EA0B5 Copy OK

No errors occurred

AccurateRip summary

Track 1 accurately ripped (confidence 1) [FFDED031] (AR v2)Track 2 accurately ripped (confidence 1) [AA327F09] (AR v2)Track 3 accurately ripped (confidence 1) [3113252B] (AR v2)Track 4 accurately ripped (confidence 1) [73C9FCE5] (AR v2)Track 5 accurately ripped (confidence 1) [60C6F623] (AR v2)Track 6 accurately ripped (confidence 1) [19889464] (AR v2)Track 7 accurately ripped (confidence 1) [B09CDC2E] (AR v2)Track 8 accurately ripped (confidence 1) [18B68C56] (AR v2)Track 9 accurately ripped (confidence 1) [35696DD5] (AR v2)Track 10 accurately ripped (confidence 1) [C3A6824E] (AR v2)Track 11 accurately ripped (confidence 1) [4946BBEE] (AR v2)Track 12 accurately ripped (confidence 1) [2A10445C] (AR v2)Track 13 accurately ripped (confidence 1) [5F1F1FBD] (AR v2)Track 14 accurately ripped (confidence 1) [4D3E8346] (AR v2)Track 15 accurately ripped (confidence 1) [55D63BFB] (AR v2)Track 16 accurately ripped (confidence 1) [9B9B82FD] (AR v2)Track 17 accurately ripped (confidence 1) [D554044B] (AR v2)Track 18 accurately ripped (confidence 1) [4336D825] (AR v2)Track 19 accurately ripped (confidence 1) [C3BE0E16] (AR v2)Track 20 accurately ripped (confidence 1) [A4EE6E58] (AR v2)Track 21 accurately ripped (confidence 1) [CCB61EEB] (AR v2)Track 22 accurately ripped (confidence 1) [349B708D] (AR v2)

All tracks accurately ripped

End of status report

==== Log checksum 57F2BF602F95FC886DB1369C5A39538708ED298400F3C60074BFDA5B9753AB89 ====
01 Come On Boys, Let''s Do That Messin'' Around - Blind Blake
02 Hard Pushin'' Papa - Blind Blake
03 Skeedle Loo Doo Blues - Blind Blake
04 Georgia Bound - Blind Blake
05 Too Tight Blues, No. 2 - Blind Blake
06 Diddie Wah Diddie - Blind Blake
07 Southern Rag - Blind Blake
08 Strollin’ - Champion Jack Dupree
09 T.B. Blues - Champion Jack Dupree
10 Can’t Kick The Habit - Champion Jack Dupree
11 Evil Woman - Champion Jack Dupree
12 Nasty Boogie - Champion Jack Dupree
13 Bad Blood - Champion Jack Dupree
14 Frankie & Johnny - Champion Jack Dupree
15 Fly Hen Blues - Cousin Joe
16 Baby You Don''t Know At All - Cousin Joe
17 The Barefoot Baby - Cousin Joe
18 Box Car Shorty And Peter Blue - Cousin Joe
19 Beggin'' Woman - Cousin Joe
20 Sadie Brown - Cousin Joe
21 Box Car Shorty''s Confession - Cousin Joe
Exact Audio Copy V1.0 beta 3 from 29. August 2011

EAC extraction logfile from 18. December 2013, 6:06

Various Artists / Best Of Blues 100 legendäre Musiker CD04 (30 CD-Set) (885150332979)

Used drive : PLEXTOR DVDR PX-860A Adapter: 0 ID: 4

Read mode : SecureUtilize accurate stream : YesDefeat audio cache : YesMake use of C2 pointers : No

Read offset correction : 96Overread into Lead-In and Lead-Out : NoFill up missing offset samples with silence : YesDelete leading and trailing silent blocks : NoNull samples used in CRC calculations : YesUsed interface : Installed external ASPI interface

Used output format : User Defined EncoderSelected bitrate : 1024 kBit/sQuality : HighAdd ID3 tag : YesCommand line compressor : E:\Program Files (x86)\Exact Audio Copy\Flac\flac.exeAdditional command line options : -V -8 -T "Date=%year%" -T "Genre=%genre%" %source%

TOC of the extracted CD

Track | Start | Length | Start sector | End sector --------------------------------------------------------- 1 | 0:00.00 | 2:46.23 | 0 | 12472 2 | 2:46.23 | 2:37.21 | 12473 | 24268 3 | 5:23.44 | 3:03.43 | 24269 | 38036 4 | 8:27.12 | 3:23.10 | 38037 | 53271 5 | 11:50.22 | 2:56.43 | 53272 | 66514 6 | 14:46.65 | 2:59.07 | 66515 | 79946 7 | 17:45.72 | 2:51.53 | 79947 | 92824 8 | 20:37.50 | 3:02.36 | 92825 | 106510 9 | 23:40.11 | 3:43.67 | 106511 | 123302 10 | 27:24.03 | 3:44.07 | 123303 | 140109 11 | 31:08.10 | 4:22.07 | 140110 | 159766 12 | 35:30.17 | 3:11.32 | 159767 | 174123 13 | 38:41.49 | 4:00.27 | 174124 | 192150 14 | 42:42.01 | 3:24.05 | 192151 | 207455 15 | 46:06.06 | 2:39.61 | 207456 | 219441 16 | 48:45.67 | 2:44.43 | 219442 | 231784 17 | 51:30.35 | 2:50.21 | 231785 | 244555 18 | 54:20.56 | 2:43.64 | 244556 | 256844 19 | 57:04.45 | 2:48.26 | 256845 | 269470 20 | 59:52.71 | 2:47.67 | 269471 | 282062 21 | 62:40.63 | 2:41.25 | 282063 | 294162

Range status and errors

Selected range

Filename D:\MUSIC\Various Artists - Best Of Blues 100 legendäre Musiker CD04 (30 CD-Set) (885150332979).wav

Peak level 100.0 % Extraction speed 8.0 X Range quality 100.0 % Test CRC 75CD62B2 Copy CRC 75CD62B2 Copy OK

No errors occurred

AccurateRip summary

Track 1 accurately ripped (confidence 1) [3CB59780] (AR v2)Track 2 accurately ripped (confidence 1) [3C2D7418] (AR v2)Track 3 accurately ripped (confidence 1) [10497BFE] (AR v2)Track 4 accurately ripped (confidence 1) [40BE38DB] (AR v2)Track 5 accurately ripped (confidence 1) [EEAABA8C] (AR v2)Track 6 accurately ripped (confidence 1) [35DEE610] (AR v2)Track 7 accurately ripped (confidence 1) [09DB8389] (AR v2)Track 8 accurately ripped (confidence 1) [D071FCAD] (AR v2)Track 9 accurately ripped (confidence 1) [FE6B929F] (AR v2)Track 10 accurately ripped (confidence 1) [6F255BD0] (AR v2)Track 11 accurately ripped (confidence 1) [C3D108A8] (AR v2)Track 12 accurately ripped (confidence 1) [900D94D9] (AR v2)Track 13 accurately ripped (confidence 1) [62A1E26E] (AR v2)Track 14 accurately ripped (confidence 1) [C6058FD4] (AR v2)Track 15 accurately ripped (confidence 1) [74606309] (AR v2)Track 16 accurately ripped (confidence 1) [804A1751] (AR v2)Track 17 accurately ripped (confidence 1) [ACF40144] (AR v2)Track 18 accurately ripped (confidence 1) [C27797CA] (AR v2)Track 19 accurately ripped (confidence 1) [08F05636] (AR v2)Track 20 accurately ripped (confidence 1) [DB8C86AD] (AR v2)Track 21 accurately ripped (confidence 1) [EBE0D681] (AR v2)

All tracks accurately ripped

End of status report

==== Log checksum 2AF1B493DB57D2CFBF25985D3E062E43FAA4BBF6131C7EA38799401B77E85823 ====
01 Wrong Man Blues - Leroy Carr & Scrapper Blackwell
02 Gettin'' All Wet - Leroy Carr & Scrapper Blackwell
03 Blue With The Blues - Leroy Carr & Scrapper Blackwell
04 Christmas In Jail, Ain''t That A Pain - Leroy Carr & Scrapper Blackwell
05 That’s Tellin''em - Leroy Carr & Scrapper Blackwell
06 Papa Wants A Cookie - Leroy Carr & Scrapper Blackwell
07 The Dirty Dozen - Leroy Carr & Scrapper Blackwell
08 Win-O - Pee Wee Crayto
09 I Got News For You - Pee Wee Crayto
10 Blues Before Dawn - Pee Wee Crayto
11 Don''t Break My Heart - Pee Wee Crayto
12 The Telephone Is Ringing - Pee Wee Crayto
13 California Women - Pee Wee Crayto
14 Blues For My Baby - Pee Wee Crayto
15 I’m A Man - Bo Diddley
16 Bo Diddley - Bo Diddley
17 Diddy Wah Diddy - Bo Diddley
18 I’m Looking For A Woman - Bo Diddley
19 You Don’t Love Me - Bo Diddley
20 Hey Bo Diddley - Bo Diddley
21 Before You Accuse Me - Bo Diddley
22 Road Runner - Bo Diddley
Exact Audio Copy V1.0 beta 3 from 29. August 2011

EAC extraction logfile from 18. December 2013, 6:06

Various Artists / Best Of Blues 100 legendäre Musiker CD05 (30 CD-Set) (885150332979)

Used drive : PLEXTOR BD-R PX-B940SA Adapter: 0 ID: 5

Read mode : SecureUtilize accurate stream : YesDefeat audio cache : YesMake use of C2 pointers : No

Read offset correction : 667Overread into Lead-In and Lead-Out : NoFill up missing offset samples with silence : YesDelete leading and trailing silent blocks : NoNull samples used in CRC calculations : YesUsed interface : Installed external ASPI interface

Used output format : User Defined EncoderSelected bitrate : 1024 kBit/sQuality : HighAdd ID3 tag : YesCommand line compressor : E:\Program Files (x86)\Exact Audio Copy\Flac\flac.exeAdditional command line options : -V -8 -T "Date=%year%" -T "Genre=%genre%" %source%

TOC of the extracted CD

Track | Start | Length | Start sector | End sector --------------------------------------------------------- 1 | 0:00.00 | 3:17.00 | 0 | 14774 2 | 3:17.00 | 3:29.11 | 14775 | 30460 3 | 6:46.11 | 3:30.48 | 30461 | 46258 4 | 10:16.59 | 3:13.30 | 46259 | 60763 5 | 13:30.14 | 3:02.24 | 60764 | 74437 6 | 16:32.38 | 2:45.74 | 74438 | 86886 7 | 19:18.37 | 2:54.52 | 86887 | 99988 8 | 22:13.14 | 2:19.42 | 99989 | 110455 9 | 24:32.56 | 2:40.57 | 110456 | 122512 10 | 27:13.38 | 2:00.44 | 122513 | 131556 11 | 29:14.07 | 2:53.01 | 131557 | 144532 12 | 32:07.08 | 2:55.71 | 144533 | 157728 13 | 35:03.04 | 3:29.52 | 157729 | 173455 14 | 38:32.56 | 2:59.54 | 173456 | 186934 15 | 41:32.35 | 3:00.73 | 186935 | 200507 16 | 44:33.33 | 2:49.69 | 200508 | 213251 17 | 47:23.27 | 2:34.71 | 213252 | 224872 18 | 49:58.23 | 2:34.42 | 224873 | 236464 19 | 52:32.65 | 2:54.16 | 236465 | 249530 20 | 55:27.06 | 2:13.69 | 249531 | 259574 21 | 57:41.00 | 3:07.11 | 259575 | 273610 22 | 60:48.11 | 2:49.49 | 273611 | 286334

Range status and errors

Selected range

Filename D:\MUSIC\Various Artists - Best Of Blues 100 legendäre Musiker CD05 (30 CD-Set) (885150332979).wav

Peak level 100.0 % Extraction speed 4.9 X Range quality 100.0 % Test CRC 2B0EA3AC Copy CRC 2B0EA3AC Copy OK

No errors occurred

AccurateRip summary

Track 1 accurately ripped (confidence 1) [4F8186DE] (AR v2)Track 2 accurately ripped (confidence 1) [0CB744DD] (AR v2)Track 3 accurately ripped (confidence 1) [E49F11D8] (AR v2)Track 4 accurately ripped (confidence 1) [4697BE85] (AR v2)Track 5 accurately ripped (confidence 1) [48819C9D] (AR v2)Track 6 accurately ripped (confidence 1) [46E3A840] (AR v2)Track 7 accurately ripped (confidence 1) [12B2CC01] (AR v2)Track 8 accurately ripped (confidence 1) [3E0EBA01] (AR v2)Track 9 accurately ripped (confidence 1) [E79960FE] (AR v2)Track 10 accurately ripped (confidence 1) [13B6F291] (AR v2)Track 11 accurately ripped (confidence 1) [CE92EA6E] (AR v2)Track 12 accurately ripped (confidence 1) [FEDBAB52] (AR v2)Track 13 accurately ripped (confidence 1) [7A82063A] (AR v2)Track 14 accurately ripped (confidence 1) [577DB242] (AR v2)Track 15 accurately ripped (confidence 1) [A46C8FD1] (AR v2)Track 16 accurately ripped (confidence 1) [5744B5BC] (AR v2)Track 17 accurately ripped (confidence 1) [76642C2D] (AR v2)Track 18 accurately ripped (confidence 1) [44BCF7E1] (AR v2)Track 19 accurately ripped (confidence 1) [1D67A61C] (AR v2)Track 20 accurately ripped (confidence 1) [B33A7916] (AR v2)Track 21 accurately ripped (confidence 1) [1789DE35] (AR v2)Track 22 accurately ripped (confidence 1) [E286B0B3] (AR v2)

All tracks accurately ripped

End of status report

==== Log checksum 430D3EED719F3A8762FB1B59232BC8459E2F7018893F3B1AB3D9CF4B80CB5CD5 ====
01 Don''t Let That Music Die - Willie Dixon
02 I Ain''t Gonna Be Your Monkey Man - Willie Dixon
03 Money Tree Blues - Willie Dixon
04 Since My Baby Gone - Willie Dixon
05 No One To Love Me - Willie Dixon
06 Hard Notch Boogie Beat - Willie Dixon
07 If The Sea Was Whiskey - Willie Dixon
08 Dallas Blues - Floyd Dixon
09 Moonshine - Floyd Dixon
10 Real Lovin'' Mama - Floyd Dixon
11 Prairie Dog Blues - Floyd Dixon
12 Shuffle Blues - Floyd Dixon
13 Blues For Cuba - Floyd Dixon
14 Telephone Blues - Floyd Dixon
15 Careless Love - Snooks Eaglin
16 Let Me Go Home, Whisky - Snooks Eaglin
17 Trouble In Mind - Snooks Eaglin
18 St. James Infirmary - Snooks Eaglin
19 Sophisticated Blues - Snooks Eaglin
20 I’m Looking For A Woman - Snooks Eaglin
21 One Scotch, One Bourbon, One Beer - Snooks Eaglin
Exact Audio Copy V1.0 beta 3 from 29. August 2011

EAC extraction logfile from 18. December 2013, 0:44

Various Artists / Best Of Blues 100 legendäre Musiker CD06 (30 CD-Set) (885150332979

Used drive : PLEXTOR DVDR PX-860A Adapter: 0 ID: 4

Read mode : SecureUtilize accurate stream : YesDefeat audio cache : YesMake use of C2 pointers : No

Read offset correction : 96Overread into Lead-In and Lead-Out : NoFill up missing offset samples with silence : YesDelete leading and trailing silent blocks : NoNull samples used in CRC calculations : YesUsed interface : Installed external ASPI interface

Used output format : User Defined EncoderSelected bitrate : 1024 kBit/sQuality : HighAdd ID3 tag : YesCommand line compressor : E:\Program Files (x86)\Exact Audio Copy\Flac\flac.exeAdditional command line options : -V -8 -T "Date=%year%" -T "Genre=%genre%" %source%

TOC of the extracted CD

Track | Start | Length | Start sector | End sector --------------------------------------------------------- 1 | 0:00.00 | 2:32.38 | 0 | 11437 2 | 2:32.38 | 3:00.12 | 11438 | 24949 3 | 5:32.50 | 2:46.34 | 24950 | 37433 4 | 8:19.09 | 3:02.46 | 37434 | 51129 5 | 11:21.55 | 2:52.57 | 51130 | 64086 6 | 14:14.37 | 2:47.19 | 64087 | 76630 7 | 17:01.56 | 3:06.33 | 76631 | 90613 8 | 20:08.14 | 3:20.60 | 90614 | 105673 9 | 23:28.74 | 2:39.68 | 105674 | 117666 10 | 26:08.67 | 2:48.11 | 117667 | 130277 11 | 28:57.03 | 2:45.38 | 130278 | 142690 12 | 31:42.41 | 3:01.44 | 142691 | 156309 13 | 34:44.10 | 2:41.12 | 156310 | 168396 14 | 37:25.22 | 3:14.33 | 168397 | 182979 15 | 40:39.55 | 2:31.39 | 182980 | 194343 16 | 43:11.19 | 2:53.15 | 194344 | 207333 17 | 46:04.34 | 2:47.28 | 207334 | 219886 18 | 48:51.62 | 2:19.72 | 219887 | 230383 19 | 51:11.59 | 2:24.26 | 230384 | 241209 20 | 53:36.10 | 1:45.07 | 241210 | 249091 21 | 55:21.17 | 2:41.48 | 249092 | 261214

Range status and errors

Selected range

Filename D:\MUSIC\Various Artists - Best Of Blues 100 legendäre Musiker CD06 (30 CD-Set) (885150332979.wav

Peak level 100.0 % Extraction speed 7.8 X Range quality 100.0 % Test CRC 6EF12B7D Copy CRC 6EF12B7D Copy OK

No errors occurred

AccurateRip summary

Track 1 accurately ripped (confidence 1) [09ED5385] (AR v2)Track 2 accurately ripped (confidence 1) [E67EF980] (AR v2)Track 3 accurately ripped (confidence 1) [8E045E40] (AR v2)Track 4 accurately ripped (confidence 1) [68047B6A] (AR v2)Track 5 accurately ripped (confidence 1) [D6B886B9] (AR v2)Track 6 accurately ripped (confidence 1) [BD2075A3] (AR v2)Track 7 accurately ripped (confidence 1) [8035A691] (AR v2)Track 8 accurately ripped (confidence 1) [ACAD1AAC] (AR v2)Track 9 accurately ripped (confidence 1) [F21A1793] (AR v2)Track 10 accurately ripped (confidence 1) [323F65E8] (AR v2)Track 11 accurately ripped (confidence 1) [5FEDAC75] (AR v2)Track 12 accurately ripped (confidence 1) [E8BDB7C7] (AR v2)Track 13 accurately ripped (confidence 1) [BBDF6E31] (AR v2)Track 14 accurately ripped (confidence 1) [3896E5AF] (AR v2)Track 15 accurately ripped (confidence 1) [F90788F1] (AR v2)Track 16 accurately ripped (confidence 1) [20708B80] (AR v2)Track 17 accurately ripped (confidence 1) [0783F39F] (AR v2)Track 18 accurately ripped (confidence 1) [E20E010D] (AR v2)Track 19 accurately ripped (confidence 1) [960F087D] (AR v2)Track 20 accurately ripped (confidence 1) [3F8F5708] (AR v2)Track 21 accurately ripped (confidence 1) [A90CE701] (AR v2)

All tracks accurately ripped

End of status report

==== Log checksum F15375E4DC714418A699827A59C624ED70BAC83BE1E221D2CDA0BE45692A3FCB ====
01 Jack And Jill Blues - Sleepy John Estes
02 Poor Man?s Friend - Sleepy John Estes
03 Hobo Jungle Blues - Sleepy John Estes
04 Airplane Blues - Sleepy John Estes
05 Floating Bridge - Sleepy John Estes
06 Need More Blues - Sleepy John Estes
07 Fire Department Blues - Sleepy John Estes
08 I Wanna Make Love To You - Lowell Fulson
09 Rock''em Dead - Lowell Fulson
10 You Better Rock This Morning - Lowell Fulson
11 Rollin'' Blues - Lowell Fulson
12 Someday Baby - Lowell Fulson
13 It Took A Long Time - Lowell Fulson
14 That’s Alright - Lowell Fulson
15 Stop Boogie Woogie - The Four Blazes
16 Snag The Britches - The Four Blazes
17 Raggedy Ride - The Four Blazes
18 Perfect Woman - The Four Blazes
19 Night Train - The Four Blazes
20 Drunken Blues - The Four Blazes
21 Mary Jo - The Four Blazes
Exact Audio Copy V1.0 beta 3 from 29. August 2011

EAC extraction logfile from 18. December 2013, 0:44

Various Artists / Best Of Blues 100 legendäre Musiker CD07 (30 CD-Set) (885150332979)

Used drive : PLEXTOR BD-R PX-B940SA Adapter: 0 ID: 5

Read mode : SecureUtilize accurate stream : YesDefeat audio cache : YesMake use of C2 pointers : No

Read offset correction : 667Overread into Lead-In and Lead-Out : NoFill up missing offset samples with silence : YesDelete leading and trailing silent blocks : NoNull samples used in CRC calculations : YesUsed interface : Installed external ASPI interface

Used output format : User Defined EncoderSelected bitrate : 1024 kBit/sQuality : HighAdd ID3 tag : YesCommand line compressor : E:\Program Files (x86)\Exact Audio Copy\Flac\flac.exeAdditional command line options : -V -8 -T "Date=%year%" -T "Genre=%genre%" %source%

TOC of the extracted CD

Track | Start | Length | Start sector | End sector --------------------------------------------------------- 1 | 0:00.00 | 2:39.36 | 0 | 11960 2 | 2:39.36 | 3:08.28 | 11961 | 26088 3 | 5:47.64 | 2:56.52 | 26089 | 39340 4 | 8:44.41 | 2:52.67 | 39341 | 52307 5 | 11:37.33 | 3:11.23 | 52308 | 66655 6 | 14:48.56 | 2:54.08 | 66656 | 79713 7 | 17:42.64 | 3:07.34 | 79714 | 93772 8 | 20:50.23 | 3:19.25 | 93773 | 108722 9 | 24:09.48 | 2:32.34 | 108723 | 120156 10 | 26:42.07 | 1:50.26 | 120157 | 128432 11 | 28:32.33 | 2:51.55 | 128433 | 141312 12 | 31:24.13 | 3:10.22 | 141313 | 155584 13 | 34:34.35 | 2:40.34 | 155585 | 167618 14 | 37:14.69 | 2:45.56 | 167619 | 180049 15 | 40:00.50 | 2:44.65 | 180050 | 192414 16 | 42:45.40 | 2:35.40 | 192415 | 204079 17 | 45:21.05 | 2:16.59 | 204080 | 214338 18 | 47:37.64 | 2:43.13 | 214339 | 226576 19 | 50:21.02 | 2:55.31 | 226577 | 239732 20 | 53:16.33 | 2:55.73 | 239733 | 252930 21 | 56:12.31 | 2:36.31 | 252931 | 264661

Range status and errors

Selected range

Filename D:\MUSIC\Various Artists - Best Of Blues 100 legendäre Musiker CD07 (30 CD-Set) (885150332979).wav

Peak level 100.0 % Extraction speed 4.8 X Range quality 99.9 % Test CRC 0A83FB00 Copy CRC 0A83FB00 Copy OK

No errors occurred

AccurateRip summary

Track 1 accurately ripped (confidence 1) [4E402DC1] (AR v2)Track 2 accurately ripped (confidence 1) [B922385D] (AR v2)Track 3 accurately ripped (confidence 1) [E4B40D91] (AR v2)Track 4 accurately ripped (confidence 1) [C75A96F2] (AR v2)Track 5 accurately ripped (confidence 1) [015A19FA] (AR v2)Track 6 accurately ripped (confidence 1) [05AE982D] (AR v2)Track 7 accurately ripped (confidence 1) [2D216B13] (AR v2)Track 8 accurately ripped (confidence 1) [E97A36E6] (AR v2)Track 9 accurately ripped (confidence 1) [8BEB5D1A] (AR v2)Track 10 accurately ripped (confidence 1) [46AD2126] (AR v2)Track 11 accurately ripped (confidence 1) [BFE4313E] (AR v2)Track 12 accurately ripped (confidence 1) [D02C42FE] (AR v2)Track 13 accurately ripped (confidence 1) [009D2919] (AR v2)Track 14 accurately ripped (confidence 1) [51BDBF32] (AR v2)Track 15 accurately ripped (confidence 1) [D4DCBB00] (AR v2)Track 16 accurately ripped (confidence 1) [82FC6E51] (AR v2)Track 17 accurately ripped (confidence 1) [46CE459F] (AR v2)Track 18 accurately ripped (confidence 1) [80567C9D] (AR v2)Track 19 accurately ripped (confidence 1) [15ED4458] (AR v2)Track 20 accurately ripped (confidence 1) [C326EBEC] (AR v2)Track 21 accurately ripped (confidence 1) [55C46E1C] (AR v2)

All tracks accurately ripped

End of status report

==== Log checksum AFB2D5EB1483F174E5C481EFBD63DAB48813994EC30ECB9B37E79F925E164B70 ====
01 Try To Quit You, Baby - Buddy Guy
02 You Sure Can''t Do - Buddy Guy
03 This Is The End - Buddy Guy
04 Sit And Cry (The Blues) - Buddy Guy
05 No Naggin'', No Draggin'' - Arthur Gunter
06 Honey Babe - Arthur Gunter
07 Little Blue Jeans Woman - Arthur Gunter
08 Baby You Better Listen - Arthur Gunter
09 I Want Her Back - Arthur Gunter
10 Walkin’ & Cookin'' Blues - Slim Gaillard
11 Blue Heaven - Slim Gaillard
12 Thunderbird - Slim Gaillard
13 Chicken Rhythm - Slim Gaillard
14 I Love You - Slim Gaillard
15 I’m In The Mood - John Lee Hooker
16 Boogie Chillen'' - John Lee Hooker
17 Let Your Daddy Ride - John Lee Hooker
18 John L''s House Rent Boogie - John Lee Hooker
19 Hobo Blues - John Lee Hooker
20 Crawlin'' King Snake - John Lee Hooker
21 Sally Mae - John Lee Hooker
Exact Audio Copy V1.0 beta 3 from 29. August 2011

EAC extraction logfile from 18. December 2013, 1:07

Various Artists / Best Of Blues 100 legendare Musiker CD08 (30 CD-Set) (885150332979)

Used drive : PLEXTOR DVDR PX-860A Adapter: 0 ID: 4

Read mode : SecureUtilize accurate stream : YesDefeat audio cache : YesMake use of C2 pointers : No

Read offset correction : 96Overread into Lead-In and Lead-Out : NoFill up missing offset samples with silence : YesDelete leading and trailing silent blocks : NoNull samples used in CRC calculations : YesUsed interface : Installed external ASPI interface

Used output format : User Defined EncoderSelected bitrate : 1024 kBit/sQuality : HighAdd ID3 tag : YesCommand line compressor : E:\Program Files (x86)\Exact Audio Copy\Flac\flac.exeAdditional command line options : -V -8 -T "Date=%year%" -T "Genre=%genre%" %source%

TOC of the extracted CD

Track | Start | Length | Start sector | End sector --------------------------------------------------------- 1 | 0:00.00 | 2:40.44 | 0 | 12043 2 | 2:40.44 | 2:42.53 | 12044 | 24246 3 | 5:23.22 | 2:59.69 | 24247 | 37740 4 | 8:23.16 | 3:05.30 | 37741 | 51645 5 | 11:28.46 | 2:47.65 | 51646 | 64235 6 | 14:16.36 | 2:35.15 | 64236 | 75875 7 | 16:51.51 | 2:30.07 | 75876 | 87132 8 | 19:21.58 | 2:39.56 | 87133 | 99113 9 | 22:01.39 | 2:40.56 | 99114 | 111169 10 | 24:42.20 | 4:36.61 | 111170 | 131930 11 | 29:19.06 | 2:27.69 | 131931 | 143024 12 | 31:47.00 | 2:12.31 | 143025 | 152955 13 | 33:59.31 | 2:17.47 | 152956 | 163277 14 | 36:17.03 | 2:53.03 | 163278 | 176255 15 | 39:10.06 | 3:07.74 | 176256 | 190354 16 | 42:18.05 | 3:10.74 | 190355 | 204678 17 | 45:29.04 | 2:41.31 | 204679 | 216784 18 | 48:10.35 | 3:03.36 | 216785 | 230545 19 | 51:13.71 | 3:04.62 | 230546 | 244407 20 | 54:18.58 | 3:03.16 | 244408 | 258148 21 | 57:21.74 | 3:10.38 | 258149 | 272436

Range status and errors

Selected range

Filename D:\MUSIC\Various Artists - Best Of Blues 100 legendare Musiker CD08 (30 CD-Set) (885150332979).wav

Peak level 100.0 % Extraction speed 7.9 X Range quality 100.0 % Test CRC DA9D4C44 Copy CRC DA9D4C44 Copy OK

No errors occurred

AccurateRip summary

Track 1 accurately ripped (confidence 1) [900831C2] (AR v2)Track 2 accurately ripped (confidence 1) [7655E25C] (AR v2)Track 3 accurately ripped (confidence 1) [522F00B3] (AR v2)Track 4 accurately ripped (confidence 1) [86B82422] (AR v2)Track 5 accurately ripped (confidence 1) [E04C3938] (AR v2)Track 6 accurately ripped (confidence 1) [1A369E0E] (AR v2)Track 7 accurately ripped (confidence 1) [5ECEE2AC] (AR v2)Track 8 accurately ripped (confidence 1) [AF3988B2] (AR v2)Track 9 accurately ripped (confidence 1) [D673F363] (AR v2)Track 10 accurately ripped (confidence 1) [B417F305] (AR v2)Track 11 accurately ripped (confidence 1) [6056C797] (AR v2)Track 12 accurately ripped (confidence 1) [CE45DE00] (AR v2)Track 13 accurately ripped (confidence 1) [BD9DBAC0] (AR v2)Track 14 accurately ripped (confidence 1) [94F36E19] (AR v2)Track 15 accurately ripped (confidence 1) [6EC841D3] (AR v2)Track 16 accurately ripped (confidence 1) [BBA8B2B5] (AR v2)Track 17 accurately ripped (confidence 1) [AEA007E0] (AR v2)Track 18 accurately ripped (confidence 1) [0D1987B7] (AR v2)Track 19 accurately ripped (confidence 1) [FDF86AB5] (AR v2)Track 20 accurately ripped (confidence 1) [E9CDFCB7] (AR v2)Track 21 accurately ripped (confidence 1) [0FD0BF58] (AR v2)

All tracks accurately ripped

End of status report

==== Log checksum D8E46B420BAA63871F5C16C54127CDDC9A21087427D8A70690918D45205D5173 ====
01 Around The Clock Pt. 1 & 2 - Wynonie Harris
02 Yonder Goes My Baby - Wynonie Harris
03 Don''t Take My Whiskey Away From Me - Wynonie Harris
04 Cock-A-Doodle-Doo - Wynonie Harris
05 You Got To Get Yourself A Job, Girl - Wynonie Harris
06 Luscious Woman - Wynonie Harris
07 Sweet Black Angel - Earl Hooker
08 Earl''s Boogie Woogie - Earl Hooker
09 Goin'' Down The Line - Earl Hooker
10 Guitar Rag - Earl Hooker
11 I Put A Spell On You - Screamin'' Jay Hawkins
12 Yellow Coat - Screamin'' Jay Hawkins
13 If You Are But A Dream - Screamin'' Jay Hawkins
14 You Made Me Love - Screamin'' Jay Hawkins
15 The Whammy - Screamin'' Jay Hawkins
16 Little Demon - Screamin'' Jay Hawkins
17 The Sun’s Gonna Shine Again - Ray Charles
18 Jumpin’ In The Morning - Ray Charles
19 The Midnight Hour - Ray Charles
20 It Should Have Been Me - Ray Charles
21 Sinner’s Prayer - Ray Charles
Exact Audio Copy V1.0 beta 3 from 29. August 2011

EAC extraction logfile from 18. December 2013, 6:59

Various Artists / Best Of Blues 100 legendäre Musiker CD09 (30 CD-Set) (885150332979)

Used drive : PLEXTOR DVDR PX-860A Adapter: 0 ID: 4

Read mode : SecureUtilize accurate stream : YesDefeat audio cache : YesMake use of C2 pointers : No

Read offset correction : 96Overread into Lead-In and Lead-Out : NoFill up missing offset samples with silence : YesDelete leading and trailing silent blocks : NoNull samples used in CRC calculations : YesUsed interface : Installed external ASPI interface

Used output format : User Defined EncoderSelected bitrate : 1024 kBit/sQuality : HighAdd ID3 tag : YesCommand line compressor : E:\Program Files (x86)\Exact Audio Copy\Flac\flac.exeAdditional command line options : -V -8 -T "Date=%year%" -T "Genre=%genre%" %source%

TOC of the extracted CD

Track | Start | Length | Start sector | End sector --------------------------------------------------------- 1 | 0:00.00 | 5:42.48 | 0 | 25697 2 | 5:42.48 | 2:46.00 | 25698 | 38147 3 | 8:28.48 | 2:11.53 | 38148 | 48025 4 | 10:40.26 | 2:49.12 | 48026 | 60712 5 | 13:29.38 | 2:42.38 | 60713 | 72900 6 | 16:12.01 | 2:48.02 | 72901 | 85502 7 | 19:00.03 | 3:09.41 | 85503 | 99718 8 | 22:09.44 | 2:34.17 | 99719 | 111285 9 | 24:43.61 | 2:17.33 | 111286 | 121593 10 | 27:01.19 | 2:53.05 | 121594 | 134573 11 | 29:54.24 | 2:25.60 | 134574 | 145508 12 | 32:20.09 | 2:23.22 | 145509 | 156255 13 | 34:43.31 | 2:49.63 | 156256 | 168993 14 | 37:33.19 | 2:01.71 | 168994 | 178139 15 | 39:35.15 | 2:32.00 | 178140 | 189539 16 | 42:07.15 | 2:24.42 | 189540 | 200381 17 | 44:31.57 | 2:39.39 | 200382 | 212345 18 | 47:11.21 | 2:47.27 | 212346 | 224897 19 | 49:58.48 | 3:01.39 | 224898 | 238511 20 | 53:00.12 | 2:44.49 | 238512 | 250860 21 | 55:44.61 | 3:22.59 | 250861 | 266069

Range status and errors

Selected range

Filename D:\MUSIC\Various Artists - Best Of Blues 100 legendäre Musiker CD09 (30 CD-Set) (885150332979).wav

Peak level 100.0 % Extraction speed 7.8 X Range quality 100.0 % Test CRC 8E9AE47A Copy CRC 8E9AE47A Copy OK

No errors occurred

AccurateRip summary

Track 1 accurately ripped (confidence 1) [6CB4085F] (AR v2)Track 2 accurately ripped (confidence 1) [D8AE3F75] (AR v2)Track 3 accurately ripped (confidence 1) [EE287229] (AR v2)Track 4 accurately ripped (confidence 1) [D03CA95E] (AR v2)Track 5 accurately ripped (confidence 1) [D2710403] (AR v2)Track 6 accurately ripped (confidence 1) [7FD165AF] (AR v2)Track 7 accurately ripped (confidence 1) [CE1D9448] (AR v2)Track 8 accurately ripped (confidence 1) [38AE2815] (AR v2)Track 9 accurately ripped (confidence 1) [CB59709E] (AR v2)Track 10 accurately ripped (confidence 1) [2098D6C0] (AR v2)Track 11 accurately ripped (confidence 1) [273614C5] (AR v2)Track 12 accurately ripped (confidence 1) [9EE90087] (AR v2)Track 13 accurately ripped (confidence 1) [28A03072] (AR v2)Track 14 accurately ripped (confidence 1) [936EE54D] (AR v2)Track 15 accurately ripped (confidence 1) [7936FA07] (AR v2)Track 16 accurately ripped (confidence 1) [66F173B2] (AR v2)Track 17 accurately ripped (confidence 1) [9302EC39] (AR v2)Track 18 accurately ripped (confidence 1) [37F90EA4] (AR v2)Track 19 accurately ripped (confidence 1) [3344BB1B] (AR v2)Track 20 accurately ripped (confidence 1) [047A7C57] (AR v2)Track 21 accurately ripped (confidence 1) [DCF44403] (AR v2)

All tracks accurately ripped

End of status report

==== Log checksum 04C39EC493D52CAC0282AD7DED302A513FC3233B5296B9FF70269BE1EE74A0A0 ====
01 Katie May Blues - Lightin'' Hopkins
02 Automobile - Lightin'' Hopkins
03 T Model Blues - Lightin'' Hopkins
04 Baby Please Don''t Go - Lightin'' Hopkins
05 Short Haired Woman - Lightin'' Hopkins
06 I’m Wild About You Baby - Lightin'' Hopkins
07 Had A Gal Called Sal - Lightin'' Hopkins
08 California Boogie - Howlin'' Wolf
09 (Well) That''s Alright - Howlin'' Wolf
10 Baby Ride With Me - Howlin'' Wolf
11 The Wolf Is At Your Door - Howlin'' Wolf
12 Oh, Red! - Howlin'' Wolf
13 I Got A Woman/ Sweet Woman - Howlin'' Wolf
14 Bluebird Blues - Howlin'' Wolf
15 Howlin'' Wolf Boogie - Howlin'' Wolf
16 Down Hearted Blues - Alberta Hunter
17 Why Did You Pick Me Up When I Was Down - Alberta Hunter
18 Don''t Pan Me - Alberta Hunter
19 Jazzin'' Baby Blues - Alberta Hunter
20 You Can’t Have It All - Alberta Hunter
21 Taint Nobody’s Business - Alberta Hunter
Exact Audio Copy V1.0 beta 3 from 29. August 2011

EAC extraction logfile from 18. December 2013, 7:25

Various Artists / Best Of Blues 100 legendäre Musiker CD10 (30 CD-Set) (885150332979)

Used drive : PLEXTOR DVDR PX-860A Adapter: 0 ID: 4

Read mode : SecureUtilize accurate stream : YesDefeat audio cache : YesMake use of C2 pointers : No

Read offset correction : 96Overread into Lead-In and Lead-Out : NoFill up missing offset samples with silence : YesDelete leading and trailing silent blocks : NoNull samples used in CRC calculations : YesUsed interface : Installed external ASPI interface

Used output format : User Defined EncoderSelected bitrate : 1024 kBit/sQuality : HighAdd ID3 tag : YesCommand line compressor : E:\Program Files (x86)\Exact Audio Copy\Flac\flac.exeAdditional command line options : -V -8 -T "Date=%year%" -T "Genre=%genre%" %source%

TOC of the extracted CD

Track | Start | Length | Start sector | End sector --------------------------------------------------------- 1 | 0:00.00 | 3:01.41 | 0 | 13615 2 | 3:01.41 | 2:48.21 | 13616 | 26236 3 | 5:49.62 | 2:37.02 | 26237 | 38013 4 | 8:26.64 | 2:52.17 | 38014 | 50930 5 | 11:19.06 | 2:37.56 | 50931 | 62761 6 | 13:56.62 | 2:55.06 | 62762 | 75892 7 | 16:51.68 | 2:17.49 | 75893 | 86216 8 | 19:09.42 | 2:58.66 | 86217 | 99632 9 | 22:08.33 | 3:03.46 | 99633 | 113403 10 | 25:12.04 | 2:43.14 | 113404 | 125642 11 | 27:55.18 | 2:59.71 | 125643 | 139138 12 | 30:55.14 | 2:39.07 | 139139 | 151070 13 | 33:34.21 | 3:29.62 | 151071 | 166807 14 | 37:04.08 | 2:51.14 | 166808 | 179646 15 | 39:55.22 | 2:39.71 | 179647 | 191642 16 | 42:35.18 | 3:05.59 | 191643 | 205576 17 | 45:41.02 | 3:28.32 | 205577 | 221208 18 | 49:09.34 | 3:01.29 | 221209 | 234812 19 | 52:10.63 | 3:16.55 | 234813 | 249567 20 | 55:27.43 | 3:17.60 | 249568 | 264402 21 | 58:45.28 | 3:05.07 | 264403 | 278284

Range status and errors

Selected range

Filename D:\MUSIC\Various Artists - Best Of Blues 100 legendäre Musiker CD10 (30 CD-Set) (885150332979).wav

Peak level 100.0 % Extraction speed 7.8 X Range quality 99.9 % Test CRC 99F2340E Copy CRC 99F2340E Copy OK

No errors occurred

AccurateRip summary

Track 1 accurately ripped (confidence 1) [F4930E60] (AR v2)Track 2 accurately ripped (confidence 1) [40F458E0] (AR v2)Track 3 accurately ripped (confidence 1) [B6E22747] (AR v2)Track 4 accurately ripped (confidence 1) [7CDB9099] (AR v2)Track 5 accurately ripped (confidence 1) [89B31E40] (AR v2)Track 6 accurately ripped (confidence 1) [F2E7AC6A] (AR v2)Track 7 accurately ripped (confidence 1) [07F8B1E4] (AR v2)Track 8 accurately ripped (confidence 1) [7AEF8D95] (AR v2)Track 9 accurately ripped (confidence 1) [BAE71010] (AR v2)Track 10 accurately ripped (confidence 1) [BE713D0F] (AR v2)Track 11 accurately ripped (confidence 1) [420C9714] (AR v2)Track 12 accurately ripped (confidence 1) [669B59C7] (AR v2)Track 13 accurately ripped (confidence 1) [0DF82389] (AR v2)Track 14 accurately ripped (confidence 1) [9BDB4EA8] (AR v2)Track 15 accurately ripped (confidence 1) [88EEFD50] (AR v2)Track 16 accurately ripped (confidence 1) [840EA8EE] (AR v2)Track 17 accurately ripped (confidence 1) [1FEE9676] (AR v2)Track 18 accurately ripped (confidence 1) [59D6FAC2] (AR v2)Track 19 accurately ripped (confidence 1) [2B8E9953] (AR v2)Track 20 accurately ripped (confidence 1) [CB22D841] (AR v2)Track 21 accurately ripped (confidence 1) [350B3A74] (AR v2)

All tracks accurately ripped

End of status report

==== Log checksum 7B048B8407413C39ABB5DEE28902E58E8E5849EF6CAFD67BEF4C04387B10BCB6 ====
01 Heaven Came Down To Earth - Ivory Joe Hunter
02 It May Sound Silly - Ivory Joe Hunter
03 I Need You - Ivory Joe Hunter
04 You Mean Everything To Me - Ivory Joe Hunter
05 Shooty Booty - Ivory Joe Hunter
06 Yes, I Want You - Ivory Joe Hunter
07 I Just Want To Love You - Ivory Joe Hunter
08 They’re Red Hot - Robert Johnson
09 Preachin'' Blues (Up Jumped The Devil) - Robert Johnson
10 I Believe I''ll Dust My Broom - Robert Johnson
11 Sweet Home Chicago - Robert Johnson
12 Kindhearted Woman Blues - Robert Johnson
13 Crossroad Blues - Robert Johnson
14 Love In Vain Blues - Robert Johnson
15 Me And The Devil Blues - Robert Johnson
16 Sho’ Nuff I Do - Elmore James
17 Please Find My Baby - Elmore James
18 Cry For Me Baby - Elmore James
19 Sunny Land - Elmore James
20 Hawaiian Boogie - Elmore James
21 T.V. Mama - Elmore James
01 Have To Change Keys (To Play These Blues) - Lonnie Johnson
02 Mr. Johnson''s Blues - Lonnie Johnson
03 Mean Old Bedbug Blues - Lonnie Johnson
04 Toothache Blues Pt. 1 - Lonnie Johnson
05 Toothache Blues Pt. 2 - Lonnie Johnson
06 Sweet Potato Blues - Lonnie Johnson
07 Dark Was The Night, Cold Was The Ground - Blind Willie Johnson
08 If I Had My Way I''d Tear The Building Down - Blind Willie Johnson
09 Trouble Will Soon Be Over - Blind Willie Johnson
10 I Know His Blood Can Make Me Whole - Blind Willie Johnson
11 Everybody Ought To Treat A Stranger Right - Blind Willie Johnson
12 It’s Nobody''s Fault But Mine - Blind Willie Johnson
13 Cool Drink Of Water Blues - Tommy Johnson
14 Maggie Campbell Blues - Tommy Johnson
15 Canned Heat Blues - Tommy Johnson
16 Alcohol And Jake Blues - Tommy Johnson
17 If You Haven''t Any Hay Get On Down The Road - Skip James
18 22-20 Blues - Skip James
19 "How Long ""Buck" - Skip James
20 Cypress Grove Blues - Skip James
21 Devil Got My Woman - Skip James
01 B. B. Boogie - B.B. King
02 Got The Blues - B.B. King
03 Mistreated Woman - B.B. King
04 She’s A Mean Woman - B.B. King
05 Hard Working Woman - B.B. King
06 Three O’Clock Blues - B.B. King
07 B.B. Blues - B.B. King
08 Blues With A Feeling - Little Walter
09 Juke - Little Walter
10 Tell Me Mama - Little Walter
11 You Better Watch Yourself - Little Walter
12 Can’t Hold On Much Longer - Little Walter
13 Tonight With A Fool - Little Walter
14 Red Headed Woman - Little Walter
15 Rock Me Mama - Lightnin'' Slim
16 Bugger Bugger Boy - Lightnin'' Slim
17 I’m A Rollin'' Stone - Lightnin'' Slim
18 Hoo Doo Man - Lightnin'' Slim
19 Nothing But The Devil - Lightnin'' Slim
20 Tom Cat Blues - Lightnin'' Slim
21 Wintertime Blues - Lightnin'' Slim
01 I Have Married - J.B. Lenoir
02 How Much More - J.B. Lenoir
03 Let’s Roll Pt. 1 - J.B. Lenoir
04 The Mojo Pt. 1 - J.B. Lenoir
05 Slow Down Woman - J.B. Lenoir
06 Louise - J.B. Lenoir
07 When I Was Young - J.B. Lenoir
08 Alabama Bound - Leadbelly
09 Shorty George - Leadbelly
10 Easy Rider - Leadbelly
11 Black Snake Moan - Leadbelly
12 See See Rider - Leadbelly
13 Roberta Pt. 1 - Leadbelly
14 Pigmeat - Leadbelly
15 Fever - Little Willie John
16 All Around The World - Little Willie John
17 Suffering With The Blues - Little Willie John
18 Tell It Like It Is - Little Willie John
19 Person To Person - Little Willie John
20 Need Your Love So Bad - Little Willie John
21 Talk To Me, Talk To Me - Little Willie John
01 How Long - Smiley Lewis
02 Goin'' To Jump And Shout - Smiley Lewis
03 Ain’t Goin'' There No More - Smiley Lewis
04 Last Night - Smiley Lewis
05 Tee-Nah-Nah - Smiley Lewis
06 Lonesome Highway - Smiley Lewis
07 Lying Woman - Smiley Lewis
08 Everybody''s Blues - Furry Lewis
09 Sweet Papa Moan - Furry Lewis
10 Kassie Jones Pt.1 - Furry Lewis
11 Mistreatin'' Mama - Furry Lewis
12 Furry''s Blues - Furry Lewis
13 Why Don’t You Come Home Blues - Furry Lewis
14 Dust My Broom - Robert Lockwood
15 Pearly B - Robert Lockwood
16 Aw Aw Baby - Robert Lockwood
17 You’ve Gotta Stop This Mess - Robert Lockwood
18 All Your Love - Magic Sam
19 Love Me With A Feeling - Magic Sam
20 Everything Gonna Be Alright - Magic Sam
21 21 Days In Jail - Magic Sam
01 Listen Woman - Jimmy Mccracklin
02 Josephine (Just Won''t Let Her Go) - Jimmy Mccracklin
03 Love When It Rains - Jimmy Mccracklin
04 Beer Drinkin'' Woman - Jimmy Mccracklin
05 Hamburger Joint - Jimmy Mccracklin
06 True Love Blues - Jimmy Mccracklin
07 The Walk - Jimmy Mccracklin
08 Please Send Me Someone To Love - Percy Mayfield
09 Strange Things Happening - Percy Mayfield
10 What A Fool I Was - Percy Mayfield
11 Lost Love (Baby, Please) - Percy Mayfield
12 Advice - Percy Mayfield
13 Nightmare - Percy Mayfield
14 Life Is Suicide - Percy Mayfield
15 Saturday Night (Four Nights Drunk) - Johnny Moore''s Three Blazers
16 Johnny, Johnny - Johnny Moore''s Three Blazers
17 Down In Texas - Johnny Moore''s Three Blazers
18 Crazy With The Blues - Johnny Moore''s Three Blazers
19 Nightmare Blues - Johnny Moore''s Three Blazers
20 Gee, It''s Rough - Johnny Moore''s Three Blazers
21 I Don’t Know, Yes I Know - Johnny Moore''s Three Blazers
01 Frisco Town - Memphis Minnie
02 Bumble Bee - Memphis Minnie
03 I’m Talking About You - Memphis Minnie
04 Joe Louis Strut - Memphis Minnie
05 Moonshine - Memphis Minnie
06 Me And My Chauffeur Blues - Memphis Minnie
07 In My Girlish Days - Memphis Minnie
08 Gabbin'' Blues (Don''t Run My Business) - Big Maybelle
09 Rain Down Rain - Big Maybelle
10 Way Back Home - Big Maybelle
11 Jinny Mule - Big Maybelle
12 One Monkey Don''t Stop No Show - Big Maybelle
13 Hair Dressin'' Women - Big Maybelle
14 No More Trouble Out Of Me - Big Maybelle
15 Cryin'' And Singin'' The Blues - Roy Milton
16 I Want A Little Girl - Roy Milton
17 My Blue Heaven - Roy Milton
18 Waking Up Blues - Roy Milton
19 Sympathetic Blues - Roy Milton
20 Playboy Blues - Roy Milton
21 Bye Bye Blues - Roy Milton
01 Chicken Shack Boogie - Amos Milburn
02 I’m Still A Fool For You - Amos Milburn
03 My Happiness Depends On You - Amos Milburn
04 Bad Bad Whiskey - Amos Milburn
05 Let’s Have A Party - Amos Milburn
06 Worried Life Blues - Big Maceo
07 Can’t You Read - Big Maceo
08 It’s All Up To You - Big Maceo
09 Poor Kelly Blues - Big Maceo
10 My Last Go Round - Big Maceo
11 Georgia Rag - Blind Willie Mctell
12 Rough Alley Blues - Blind Willie Mctell
13 Low Rider''s Blues - Blind Willie Mctell
14 Painful Blues - Blind Willie Mctell
15 Mama, Let Me Scoop For You - Blind Willie Mctell
16 Rollin'' Mama Blues - Blind Willie Mctell
17 Rolling The Stone - Jimmy Jancey
18 Yancey’s Getaway - Jimmy Jancey
19 Yancey Stomp - Jimmy Jancey
20 Make Me A Pallet On The Floor - Jimmy Jancey
21 Lucille''s Lament - Jimmy Jancey
01 Really Got The Blues - Memphis Slim
02 Mother Earth - Memphis Slim
03 I Guess I''m A Fool - Memphis Slim
04 Tia Juana - Memphis Slim
05 Reverend Bounce - Memphis Slim
06 I’m Crying - Memphis Slim
07 Slim’s Blues - Memphis Slim
08 Baby, Don''t You Want To Go - Tommy Mcclennan
09 You Can’t Mistreat Me - Tommy Mcclennan
10 Brown Skin Girl - Tommy Mcclennan
11 I’m Going Don''t You Know - Tommy Mcclennan
12 My Baby''s Gone - Tommy Mcclennan
13 Whiskey Headed Woman - Tommy Mcclennan
14 Highway 51 - Tommy Mcclennan
15 I’m Going Down The River - Mississippi Fred Mcdowell
16 When The Train Comes Along - Mississippi Fred Mcdowell
17 Shake ’Em On Down - Mississippi Fred Mcdowell
18 Worried Mind - Mississippi Fred Mcdowell
19 Keep Your Lamp Trimmed And Burning - Mississippi Fred Mcdowell
20 What’s The Matter Now? - Mississippi Fred Mcdowell
21 Good Morning Little Schoolgirl - Mississippi Fred Mcdowell
01 Candy Man Blues - Mississippi John Hurt
02 Blessed Be The Name - Mississippi John Hurt
03 Nobody’s Dirty Business - Mississippi John Hurt
04 Louis Collins - Mississippi John Hurt
05 Avalon Blues - Mississippi John Hurt
06 Ain’t No Telling - Mississippi John Hurt
07 Blue Harvest Blues - Mississippi John Hurt
08 Crying Won''t Help You - Robert Nighthawk
09 Seventy-Four - Robert Nighthawk
10 Nighthawk Boogie - Robert Nighthawk
11 Kansas City - Robert Nighthawk
12 Bricks In My Pillow - Robert Nighthawk
13 Maggie Campbell - Robert Nighthawk
14 Feel So Bad - Robert Nighthawk
15 Good Ole Blues - Johnny Otis
16 Mean Ole Gal - Johnny Otis
17 Hangover Blues - Johnny Otis
18 Thursday Night Blues - Johnny Otis
19 I Gotta Guy - Johnny Otis
20 Get Together Blues - Johnny Otis
21 Double Crossing Blues - Johnny Otis
01 High Water Everywhere Pt. 1 - Charley Patton
02 Hang It On The Wall - Charley Patton
03 Prayer Of Death Pt. 1 - Charley Patton
04 Sic Em Dogs On - Charley Patton
05 Watch And Pray - Charley Patton
06 Snatch And Grab It - Charley Patton
07 M And O Blues - Charley Patton
08 Snooky And Moody''s Boogie - Snooky Pryor
09 Telephone Blues - Snooky Pryor
10 Boogy Fool - Snooky Pryor
11 Stop The Train, Conductor - Snooky Pryor
12 Walking Boogie - Snooky Pryor
13 Uncle Sam, Don''t Take My Man - Snooky Pryor
14 Rough Treatment - Snooky Pryor
15 Go To The Mardi Gras - Professor Longhair
16 In The Night - Professor Longhair
17 Hey Little Girl - Professor Longhair
18 Walk Your Blues Away - Professor Longhair
19 Willie Mae - Professor Longhair
20 Professor Longhair Blues - Professor Longhair
21 Misery - Professor Longhair - Professor Longhair
01 Feelin'' Good - Junior Parker
02 Mystery Train - Junior Parker
03 Sittin’ At The Bar - Junior Parker
04 Sittin’ At The Window - Junior Parker
05 Sittin’, Drinkin'' And Thinkin'' - Junior Parker
06 Dirty Friend Blues - Junior Parker
07 Backtracking - Junior Parker
08 Baby What You Want Me To Do - Jimmy Reed
09 Found Love - Jimmy Reed
10 Big Boss Man - Jimmy Reed
11 Hush Hush - Jimmy Reed
12 I’m Nervous - Jimmy Reed
13 Going By The River Pt.1 - Jimmy Reed
14 I Ain''t Got You - Jimmy Reed
15 Checking On My Baby - Otis Rush
16 Love That Woman - Otis Rush
17 My Baby Is A Good''un - Otis Rush
18 All Your Love - Otis Rush
19 If You Were Mine - Otis Rush
20 Violent Love - Otis Rush
21 My Love Will Never Die - Otis Rush
01 Good Morning Blues - Jimmy Rushing
02 See See Rider - Jimmy Rushing
03 Take Me Back, Baby - Jimmy Rushing
04 Sent For You Yesterday - Jimmy Rushing
05 Roll''em Pete - Jimmy Rushing
06 My Friend Mr. Blues - Jimmy Rushing
07 Every Day - Jimmy Rushing
08 You Missed A Good Man - Tampa Red
09 She Want To Sell My Monkey - Tampa Red
10 She’s Love Crazy - Tampa Red
11 Hard Road Blues - Tampa Red
12 Let Me Play With Your Poodle - Tampa Red
13 Crying Won''t Help You - Tampa Red
14 Sweet Little Angel - Tampa Red
15 Down Hearted Blues - Bessie Smith
16 Taint Nobody’s Bizness If I Do - Bessie Smith
17 Mama''s Got The Blues - Bessie Smith
18 Yodling Blues - Bessie Smith
19 Bleeding Hearted Blues - Bessie Smith
20 Nobody In Town Can Bake A Sweet Jelly Roll Like Mi - Bessie Smith
21 Jail House Blues - Bessie Smith
01 Rockin'' Pneumonia And The Boogie Woogie Flu - "huey ""piano"" Smith"
02 Little Chickee Wah Wah - "huey ""piano"" Smith"
03 Hush Your Mouth - "huey ""piano"" Smith"
04 Don''t You Know Yockomo - "huey ""piano"" Smith"
05 Well I''ll Be John Brown - "huey ""piano"" Smith"
06 Lucy Mae Blues - Frankie Lee Sims
07 Jelly Roll Baker - Frankie Lee Sims
08 Raggedy And Dirty - Frankie Lee Sims
09 Frankie''s Blues - Frankie Lee Sims
10 Lucy Mae Blues Pt .2 - Frankie Lee Sims
11 44 Blues - Roosevelt Sykes
12 Trouble And Whiskey - Roosevelt Sykes
13 Sykes Advice Blues - Roosevelt Sykes
14 Sugar Babe Blues - Roosevelt Sykes
15 Jiving The Jive - Roosevelt Sykes
16 The Honeydripper - Roosevelt Sykes
17 Uncle Sam Says - Josh White
18 Jim Crow Train - Josh White
19 Bad Housing Blues - Josh White
20 Southern Exposure - Josh White
21 Monday, Tuesday, Wednesday - Josh White
01 Am I Right Or Wrong - Son House
02 Shetland Pony Blues - Son House
03 Walkin’ Blues - Son House
04 Depot Blues - Son House
05 Country Farm Blues - Son House
06 The Jinx Blues - Son House
07 Levee Camp Blues - Son House
08 Mud Kicking Woman - Sunnyland Slim
09 Brown Skin Woman - Sunnyland Slim
10 I’m Just A Lonesome Man - Sunnyland Slim
11 Back To Korea Blues - Sunnyland Slim
12 You’ve Got To Stop This Mess - Sunnyland Slim
13 Sunnyland Special - Sunnyland Slim
14 Leaving Your Town - Sunnyland Slim
15 Ramblin'' - Johnny Shines
16 Fishtail - Johnny Shines
17 Cool Drive - Johnny Shines
18 Ain’t Doin'' No Good - Johnny Shines
19 Evening Shuffle - Johnny Shines
20 Evening Sun - Johnny Shines
21 No Name Blues - Johnny Shines
01 Partnership Blues - Big Mama Thornton
02 I’m All Fed Up - Big Mama Thornton
03 Let Your Tears Fall Baby - Big Mama Thornton
04 They Call Me Big Mama - Big Mama Thornton
05 Hound Dog - Big Mama Thornton
06 I Smell A Rat - Big Mama Thornton
07 Nightmare - Big Mama Thornton
08 Let That Liar Alone - Sister Rosetta Tharpe
09 Sit Down - Sister Rosetta Tharpe
10 What’s The News - Sister Rosetta Tharpe
11 Singin’ In My Soul - Sister Rosetta Tharpe
12 The Natural Facts - Sister Rosetta Tharpe
13 Two Little Fishes And Five Loaves Of Bread - Sister Rosetta Tharpe
14 Nobody’s Fault But Mine - Sister Rosetta Tharpe
15 Bye Bye Baby Blues - Sonny Terry
16 I Don’t Care How Long - Sonny Terry
17 Blues And Worried Man - Sonny Terry
18 Harmonica Blues - Sonny Terry
19 Somebody''s Been Talkin? - Sonny Terry
20 Harmonica Stomp - Sonny Terry
21 Twelve Gates To The City - Sonny Terry
01 Bad Boy - Eddie Taylor
02 Big Town Playboy - Eddie Taylor
03 Find My Baby - Eddie Taylor
04 Stroll Out West - Eddie Taylor
05 E.T. Blues - Eddie Taylor
06 Don''t Knock At My Door - Eddie Taylor
07 I’m Gonna Love You - Eddie Taylor
08 Blues In The Night - Big Joe Turner
09 Sun Risin? Blues - Big Joe Turner
10 S.K. Blues Part 1 - Big Joe Turner
11 Nobody In Mind - Big Joe Turner
12 Blues On Central Avenue - Big Joe Turner
13 Ice Man - Big Joe Turner
14 Chewed Up Grass - Big Joe Turner
15 Too Many Women Blues - Eddie Cleanhead Vinson
16 Just A Dream - Eddie Cleanhead Vinson
17 King For A Day Blues - Eddie Cleanhead Vinson
18 Railroad Porter''s Blues - Eddie Cleanhead Vinson
19 Gonna Send You Back Where I Got You From - Eddie Cleanhead Vinson
20 When I Get Drunk - Eddie Cleanhead Vinson
21 Oil Man Blues - Eddie Cleanhead Vinson
01 They Call It Stormy Monday - T-bone Walker
02 It’s A Low Down Dirty Deal - T-bone Walker
03 Bobby Sox Blues - T-bone Walker
04 Mean Old World - T-bone Walker
05 Evening - T-bone Walker
06 Long Skirt Baby Blues - T-bone Walker
07 Midnight Blues - T-bone Walker
08 I’m Just A Lady?s Man - Jimmy Witherspoon
09 Love My Baby - Jimmy Witherspoon
10 Love And Friendship - Jimmy Witherspoon
11 Geneva Blues aka Evil Woman - Jimmy Witherspoon
12 I’m Just Wandering (Part 1) - Jimmy Witherspoon
13 I’m Just Wandering (Part 2) - Jimmy Witherspoon
14 Good Jumping aka Jump Children - Jimmy Witherspoon
15 Country Blues - Muddy Waters
16 I Be?s Troubled - Muddy Waters
17 Burr Clover Farm Blues - Muddy Waters
18 Take A Walk With Me - Muddy Waters
19 Burr Clover Blues - Muddy Waters
20 Walking Blues - Muddy Waters
21 I Can''t Be Satisfied - Muddy Waters
01 Hoodoo Man - Junior Wells
02 Junior''s Wail - Junior Wells
03 Tomorrow Night - Junior Wells
04 Please Throw This Poor Dog A Bone - Junior Wells
05 Bout The Break Of Day - Junior Wells
06 I’m A Mighty Tight Woman - Sippie Wallace
07 Murder''s Gonna Be My Crime - Sippie Wallace
08 Suitcase Blues - Sippie Wallace
09 Special Delivery Blues - Sippie Wallace
10 The Flood Blues - Sippie Wallace
11 Dead Drunk Blues - Sippie Wallace
12 Shake That Thing - Peetie Wheatsraw
14 Come Over And See Me - Peetie Wheatsraw
15 Cake Alley - Peetie Wheatsraw
16 Peetie Wheatstraw Stomp - Peetie Wheatsraw
17 Gangster’s Blues - Peetie Wheatsraw
17 Gangster of Love - Johnny Guitar Watson
18 Too Tired - Johnny Guitar Watson
19 Oh Baby - Johnny Guitar Watson
20 Motor Head Baby - Johnny Guitar Watson
21 Love Bandit (Gangster of Love) - Johnny Guitar Watson
01 Drop Down Blues - Big Joe Williams
02 Stack Of Dollars - Big Joe Williams
03 Wild Cow Moan - Big Joe Williams
04 King Biscuit Stomp - Big Joe Williams
05 Baby Please Don''t Go - Big Joe Williams
06 Black Gal Blues - Sonny Boy Williamson I. (john Lee)
07 Bad Luck Blues - Sonny Boy Williamson I. (john Lee)
08 My Black Name Blues - Sonny Boy Williamson I. (john Lee)
09 Stop Breaking Down - Sonny Boy Williamson I. (john Lee)
10 Train Fare Blues - Sonny Boy Williamson I. (john Lee)
11 Better Cut That Out - Sonny Boy Williamson I. (john Lee)
12 All My Love In Vain - Sonny Boy Williamson Ii. (rice Mill)
13 Keep It To Yourself - Sonny Boy Williamson Ii. (rice Mill)
14 Fattening Frogs For Snakes - Sonny Boy Williamson Ii. (rice Mill)
15 Dissatisfied - Sonny Boy Williamson Ii. (rice Mill)
16 99 - Sonny Boy Williamson Ii. (rice Mill)
17 Good Gin Blues - Bukka White
18 When Can I Change My Clothes? - Bukka White
19 High Fever Blues - Bukka White
20 Bukka''s Jitterbug Swing - Bukka White


Трекер:  [ 21-Дек-2013 15:49 ]

  

Скачать .torrent

Размер .torrent файла 47 KB


Размер: 6.8 GB
Хэш (hash) релиза: 2c1d6dd7a7de3c7c770ecebdb245685fbd8df789

Еще никто не оставлял запись к записи скачать торрент . Будь первым!

!Обратная связь