Скачать через торрент музыку Bobby Watson Quintet - Festival jazz a Foix 2012 бесплатно без регистрации torrent

Если у вас наблюдаются проблемы со скриншотами, переходом по ссылками, скачиванием торрентов - проблемы в блокировщике рекламы AdBlock. #хорошегоДня!


Статистика раздачи
Размер:  3.64 GB   |    Зарегистрирован:  3 года 8 месяцев   |    .torrent скачан:  70 раз   |   
Раздают:  1  
   
Загрузка...
 
Автор Сообщение

Galfimbul

avatar Galfimbul


Bobby Watson Quintet - Festival jazz a Foix 2012

Жанр: contemporary jazz
Продолжительность: 00:54:38
Год выпуска: 2012

Описание:
Bobby Watson Quintet - Festival jazz a Foix 2012 (23-29 juil)

Bobby Watson - sax
Harold Mabem - piano
Jim Rotondi - trumpet
joe Famsworth - drums
John Webber - bass

= ТРЕКЛИСТ =

= Speak low =
- /Kurt Weill/ -
= Prince Albert =
- /Dorham - Roach/ -
= In s sentimental mood =
- / Duke Ellington/ =
= Ceora =
- /Lee Morgan/ -
= Moanin =
- /Art Blakey/ -

Качество: HDTVRip 1080p
Контейнер: MP4
Видео кодек: H.264
Аудио кодек: AAC
Видео: 1920x1080 (16:9), 25.00 fps, AVC, 9142 Кбит, 0.175 bits/pixel
Аудио: 48.0 KHz, AAC-LC, 2 ch, stereo, 128-384 Kbps VBR
Полное имя : G:\DVD\Bobby Watson Quintet - FjaF 2012\Bobby Watson Quintet - Festival jazz a Foix 2012.mp4Формат : MPEG-4Профиль формата : Base Media / Version 2Идентификатор кодека : mp42Размер файла : 3,64 ГбайтПродолжительность : 54 м.Общий поток : 9530 Кбит/секДата кодирования : UTC 2013-12-21 07:44:00Дата пометки : UTC 2013-12-21 07:44:00

ВидеоИдентификатор : 2Формат : AVCФормат/Информация : Advanced Video CodecПрофиль формата : Main@L4.0Параметр CABAC формата : ДаПараметр ReFrames формата : 2 кадраИдентификатор кодека : avc1Идентификатор кодека/Информация : Advanced Video CodingПродолжительность : 54 м.Вид битрейта : ПеременныйБитрейт : 9142 Кбит/секМаксимальный битрейт : 9001 Кбит/секШирина : 1920 пикселейВысота : 1088 пикселейВысота оригинала : 1080 пикселейСоотношение сторон : 16:9Соотношение сторон в оригинале : 16:9Режим частоты кадров : ПостоянныйЧастота кадров : 25,000 кадров/секЧастота кадров в оригинале : 12,500 кадров/секЦветовое пространство : YUVСубдискретизация насыщенности : 4:2:0Битовая глубина : 8 битТип развёртки : ПрогрессивнаяБит/(Пиксели*Кадры) : 0.175Размер потока : 3,49 Гбайт (96%)Язык : EnglishДата кодирования : UTC 2013-12-21 07:44:00Дата пометки : UTC 2013-12-21 07:44:00

АудиоИдентификатор : 1Формат : AACФормат/Информация : Advanced Audio CodecПрофиль формата : LCИдентификатор кодека : 40Продолжительность : 54 м.Вид битрейта : ПостоянныйБитрейт : 384 Кбит/секНоминальный битрейт : 128 Кбит/секКаналы : 2 каналаРасположение каналов : Front: L RЧастота : 48,0 КГцМетод сжатия : С потерямиРазмер потока : 150 Мбайт (4%)Язык : EnglishДата кодирования : UTC 2013-12-21 07:44:00Дата пометки : UTC 2013-12-21 07:44:00


Трекер:  [ 21-Дек-2013 13:54 ]

  

Скачать .torrent

Размер .torrent файла 18 KB


Размер: 3.64 GB
Хэш (hash) релиза: 15a306bb5ee7c43d89b5516463ed06b1e9f5ae83

Еще никто не оставлял запись к записи скачать торрент Bobby Watson Quintet - Festival jazz a Foix 2012 . Будь первым!

!Обратная связь