Скачать через торрент музыку The Legendary Bing Crosby бесплатно без регистрации torrent

Если у вас наблюдаются проблемы со скриншотами, переходом по ссылками, скачиванием торрентов - проблемы в блокировщике рекламы AdBlock. #хорошегоДня!


Статистика раздачи
Размер:  4.13 GB   |    Зарегистрирован:  3 года 10 месяцев   |    .torrent скачан:  78 раз   |   
Раздают:  1  
   
Загрузка...
 
Автор Сообщение

Galfimbul

avatar Galfimbul


The Legendary Bing Crosby (with Frank Sinatra, Dean Martin, Bob Hope, David Bowie)

Жанр: Vocal Jazz /Swing
Продолжительность: 58 мин
Год выпуска: 2010

Описание: Collection of some of Bing Crosby''s most memorable performances, including his collaboration with David Bowie on The Little Drummer Boy in 1977. There are also performances with Bob Hope, Frank Sinatra and Dean Martin and solo songs I Love Paris, Swanee and Ol'' Man River. The singer''s widow Kathryn and daughter Mary offer an insight into the life and career of this timeless entertainer, along with nostalgic clips of Crosby singing, dancing and joking on stage.

Качество: HDTV 1080i
Контейнер: MKV
Видео кодек: H.264
Аудио кодек: AC3
Видео: Cod.: V_MPEG4/ISO/AVC, 1920x1080i, 9.7 Mbps, 25 fps
Аудио: AC3, Channels 2, SR:48 KHz, BR: 384 Kb/s
GeneralComplete name : The Legendary Bing Crosby.mkvFormat : MatroskaFile size : 4.13 GiBDuration : 57mn 46sOverall bit rate : 10.2 MbpsWriting application : Lavf53.21.1Writing library : Lavf53.21.1

VideoID : 1Format : AVCFormat/Info : Advanced Video CodecFormat profile : Main@L4.0Format settings, CABAC : YesFormat settings, ReFrames : 4 framesMuxing mode : Container profile=@4.0Codec ID : V_MPEG4/ISO/AVCDuration : 57mn 46sBit rate : 9 639 KbpsWidth : 1 920 pixelsHeight : 1 080 pixelsDisplay aspect ratio : 16:9Frame rate : 25.000 fpsColor space : YUVChroma subsampling : 4:2:0Bit depth : 8 bitsScan type : InterlacedScan order : Top Field FirstBits/(Pixel*Frame) : 0.186Stream size : 3.89 GiB (94%)Color primaries : BT.709-5, BT.1361, IEC 61966-2-4, SMPTE RP177Transfer characteristics : BT.709-5, BT.1361Matrix coefficients : BT.709-5, BT.1361, IEC 61966-2-4 709, SMPTE RP177

AudioID : 2Format : AC-3Format/Info : Audio Coding 3Mode extension : CM (complete main)Codec ID : A_AC3Duration : 57mn 46sBit rate mode : ConstantBit rate : 384 KbpsChannel(s) : 2 channelsChannel positions : Front: L RSampling rate : 48.0 KHzVideo delay : 23msStream size : 159 MiB (4%)


Трекер:  [ 21-Дек-2013 13:54 ]

  

Скачать .torrent

Размер .torrent файла 21 KB


Размер: 4.13 GB
Хэш (hash) релиза: 40a60cc19d9bea406aa508086b29f1511cd32a5e

Еще никто не оставлял запись к записи скачать торрент The Legendary Bing Crosby . Будь первым!

!Обратная связь