Скачать порно через торрент 4 Petites chattes a Venise Sex in Venice UnionPeer.org бесплатно онлайн HD качество

Скачать новое порно 2015, 2014 новинки через торрент UnionPeer.org

Порно торрент бесплатно ЮнионПир.орг

Если у вас наблюдаются проблемы со скриншотами, переходом по ссылками, скачиванием торрентов - проблемы в блокировщике рекламы AdBlock. #хорошегоДня!


Статистика раздачи
Размер:  1.46 GB   |    Зарегистрирован:  3 года 7 месяцев   |    .torrent скачан:  213 раз   |   
Раздают:  1  
   
Загрузка...
 
Автор Сообщение

LinGr

avatar LinGr


4 Petites chattes a Venise / Sex in Venice

Год производства: 2013 г.
Жанр: Anal,Oral,DP.
Продолжительность: 2h 3mn
Язык: Английский

Режиссер: Scarlett Revell
Студия: Harmony

В ролях: Samantha Bentley, Henessy, Ian Scott, George Uhl, Marco Banderas, Mira, Irina Bruni, Kerry

Описание:
Summary of the movie Sex in Venice
Evoke your passions…in the city of love. Angel of filth, Director Scarlett Revell, takes you on an epic tale of debauchery in the beautiful surrondings of the Venetian city of Love.
This is stylistic hardcore at its best… This is Sex in Venice

Доп. информация:
http://www.dorcelvision.com/en/studios/Harmony/7328/Sex_in_Venice#prettyPhoto

http://www.adultedvdx.com/blog/photos-du-film-4-petites-chattes-a-venise-dvd/

Качество видео: DVDRip

Format : MPEG-4
Format profile : Base Media
Codec ID : isom
File size : 1.46 GiB
Duration : 2h 3mn
Overall bit rate : 1 693 Kbps
Encoded date : UTC 2013-12-20 13:53:16
Tagged date : UTC 2013-12-20 13:53:16

Video
ID : 2
Format : AVC
Format/Info : Advanced Video Codec
Format profile : Baseline@L3.0
Format settings, CABAC : No
Format settings, ReFrames : 1 frame
Muxing mode : Container profile=Baseline@4.1
Codec ID : avc1
Codec ID/Info : Advanced Video Coding
Duration : 2h 3mn
Bit rate mode : Variable
Bit rate : 1 561 Kbps
Width : 704 pixels
Height : 396 pixels
Display aspect ratio : 16:9
Frame rate mode : Constant
Frame rate : 23.976 fps
Original frame rate : 23.000 fps
Color space : YUV
Chroma subsampling : 4:2:0
Bit depth : 8 bits
Scan type : Progressive
Bits/(Pixel*Frame) : 0.233
Stream size : 1.35 GiB (92%)
Writing library : U
Language : English

Audio
ID : 1
Format : AAC
Format/Info : Advanced Audio Codec
Format profile : LC
Codec ID : 40
Duration : 2h 3mn
Bit rate mode : Constant
Bit rate : 128 Kbps
Channel(s) : 2 channels
Channel positions : Front: L R
Sampling rate : 48.0 KHz
Compression mode : Lossy
Stream size : 113 MiB (8%)
Language : EnglishFormat : MPEG-4
Format profile : Base Media
Codec ID : isom
File size : 1.46 GiB
Duration : 2h 3mn
Overall bit rate : 1 693 Kbps
Encoded date : UTC 2013-12-20 13:53:16
Tagged date : UTC 2013-12-20 13:53:16

Video
ID : 2
Format : AVC
Format/Info : Advanced Video Codec
Format profile : Baseline@L3.0
Format settings, CABAC : No
Format settings, ReFrames : 1 frame
Muxing mode : Container profile=Baseline@4.1
Codec ID : avc1
Codec ID/Info : Advanced Video Coding
Duration : 2h 3mn
Bit rate mode : Variable
Bit rate : 1 561 Kbps
Width : 704 pixels
Height : 396 pixels
Display aspect ratio : 16:9
Frame rate mode : Constant
Frame rate : 23.976 fps
Original frame rate : 23.000 fps
Color space : YUV
Chroma subsampling : 4:2:0
Bit depth : 8 bits
Scan type : Progressive
Bits/(Pixel*Frame) : 0.233
Stream size : 1.35 GiB (92%)
Writing library : U
Language : English

Audio
ID : 1
Format : AAC
Format/Info : Advanced Audio Codec
Format profile : LC
Codec ID : 40
Duration : 2h 3mn
Bit rate mode : Constant
Bit rate : 128 Kbps
Channel(s) : 2 channels
Channel positions : Front: L R
Sampling rate : 48.0 KHz
Compression mode : Lossy
Stream size : 113 MiB (8%)
Language : English


Трекер:  [ 21-Дек-2013 01:11 ]

  

Скачать .torrent

Размер .torrent файла 15 KB


Размер: 1.46 GB
Хэш (hash) релиза: 7bb653d93e3c7de6c56360cce0fc11a958848453

Еще никто не оставлял запись к записи скачать торрент 4 Petites chattes a Venise Sex in Venice . Будь первым!

!Обратная связь