Скачать порно через торрент Dorei Usagi to Anthony The Animation Идеальная девушка и кролик UnionPeer.org бесплатно онлайн HD качество

Скачать новое порно 2015, 2014 новинки через торрент UnionPeer.org

Порно торрент бесплатно ЮнионПир.орг

Если у вас наблюдаются проблемы со скриншотами, переходом по ссылками, скачиванием торрентов - проблемы в блокировщике рекламы AdBlock. #хорошегоДня!


Статистика раздачи
Размер:  2.04 GB   |    Зарегистрирован:  3 года 10 месяцев   |    .torrent скачан:  229 раз   |   
Раздают:  1  
   
Загрузка...
 
Автор Сообщение

Galfimbul

avatar Galfimbul


Dorei Usagi to Anthony The Animation / 奴隷兎とアンソニー THE ANIMATION / Идеальная девушка и кролик

Год производства: 2013 г.
Жанр: Big tits, Oral sex, X-Ray, Comedy, Romance, School,
Серии: ep. 1
Продолжительность: 1х~26 min + 29 min трейлеры
Цензура: Есть

Озвучка: Японская (Оригинальная)

Режиссер: Araki Hideki
Автор оригинала: Akatsuki Myuuto
Студия: Pink Pineapple

Описание RUS: Экранизация манги Akatsuki Myuuto. Хирото - простой замкнутый школьник, который ненавидит распутных девчонок и озабоченных парней. В один прекрасный день в его класс переводится полукровка Шарлота, которая сразу же заявляет, что умеет читать сердца людей (знает самые сокровенные желания) и что Хирото самый озабоченный перец в школе. Хирото конечно возмутился такому заявлению и не поверил. Тогда Шарлота доказала ему страстным минетом, читая его мысли и выполняя их в реале. ©hentaimag.ru

Описание ENG: A screen adaptation of the manga Akatsuki Myuuto. Hiroto - simple closed high school student who hates promiscuous girls and horny guys. One day in his class translates Blood Charlotte, who immediately declares that can read people's hearts (knows innermost desires) and that most preoccupied Hiroto pepper in school. Hiroto course outraged such a statement and did not believe it. Then Charlotte proved to him a passionate blowjob, reading his thoughts and executing them in real life.

Информационные ссылки: AniDB - MAL - World Art - ХентайМаг

Качество видео: DVD5
Формат видео: DVD Video
Видео кодек: MPEG2
Аудио кодек: AC3
Видео: 720х480, (16:9), 29,970 кадров/сек, ~ 5250 Кбит/сек, NTSC
Аудио: JAP, AC-3, 2 канала, 192 Кбит/сек, 48,0 КГц
Общее
Полное имя : J:\VIDEO_TS\VTS_01_1.VOB
Формат : MPEG-PS
Размер файла : 1024 Мбайт
Продолжительность : 25 м.
Режим общего битрейта : Переменный
Общий поток : 5553 Кбит/сек

Видео
Идентификатор : 224 (0xE0)
Формат : MPEG Video
Версия формата : Version 2
Профиль формата : Main@Main
Параметр BVOP формата : Да
Параметр матрицы формата : Выборочная
Параметр GOP формата : Variable
Продолжительность : 25 м.
Вид битрейта : Переменный
Битрейт : 5250 Кбит/сек
Максимальный битрейт : 9800 Кбит/сек
Ширина : 720 пикселей
Высота : 480 пикселей
Соотношение сторон : 16:9
Частота кадров : 29,970 кадров/сек
Стандарт вещания : NTSC
Цветовое пространство : YUV
Субдискретизация насыщенности : 4:2:0
Битовая глубина : 8 бит
Тип развёртки : Чересстрочная
Порядок развёртки : Верхнее поле первое
Метод сжатия : С потерями
Бит/(Пиксели*Кадры) : 0.507
Временной код первого кадра : 01:00:10:00
Оригинал временного кода : Group of pictures header
Размер потока : 968 Мбайт (95%)

Аудио
Идентификатор : 189 (0xBD)-128 (0x80)
Формат : AC-3
Формат/Информация : Audio Coding 3
Расширение режима : CM (complete main)
Параметр Endianness формата : Big
Режим смешивания : DVD-Video
Продолжительность : 25 м.
Вид битрейта : Постоянный
Битрейт : 192 Кбит/сек
Каналы : 2 канала
Расположение каналов : Front: L R
Частота : 48,0 КГц
Битовая глубина : 16 бит
Метод сжатия : С потерями
Размер потока : 35,4 Мбайт (3%)

Меню
Время раздачи: с 09 до 00.00 (Киев), отдача: 100 кб/с (анальный инет)
1 Большая просьба, помогайте другим скачать (тогда релизов будет больше)
2 Если нет сидов - пишите в лс
3 Если сдохли постеры и скриншоты - пишите в лс

Трекер:  [ 19-Дек-2013 18:12 ]

  

Скачать .torrent

Размер .torrent файла 10 KB


Размер: 2.04 GB
Хэш (hash) релиза: ac567a9cac726e463abb90752b8a0001b24712ed

Еще никто не оставлял запись к записи скачать торрент Dorei Usagi to Anthony The Animation Идеальная девушка и кролик . Будь первым!

!Обратная связь