Скачать порно через торрент Aoi Has an Ecchi Job at a Bookstore UnionPeer.org бесплатно онлайн HD качество

Скачать новое порно 2015, 2014 новинки через торрент UnionPeer.org

Порно торрент бесплатно ЮнионПир.орг

Если у вас наблюдаются проблемы со скриншотами, переходом по ссылками, скачиванием торрентов - проблемы в блокировщике рекламы AdBlock. #хорошегоДня!


Статистика раздачи
Размер:  389 MB   |    Зарегистрирован:  3 года 8 месяцев   |    .torrent скачан:  775 раз   |   
Раздают:  2  
   
Загрузка...
 
Автор Сообщение

Galfimbul

avatar Galfimbul


Aoi Has an Ecchi Job at a Bookstore / Aoi 本屋でHなアルバイト
Год производства: 2013 г.
Дата релиза: 2013/12/01
Жанр: Internal, Cumshot, Sexual Training, Outdoor Exposure, Anal, Virgin
Продолжительность: 24:36
Цензура: Есть во всех файлах

Язык: Японский
Озвучка: Оригинальная
Студия:Kuril
Описание: Aoi, a girl who works in a bookshop is in heavy debt by an accident, and she has to do whatever the shop owner asks her...
She resists at first, but her masochistic nature gradually changes her attitude

Качество видео: GameRip
Разрешение видео: 720p
Формат видео: AVI
Видео кодек: H.264/AVC
Аудио кодек: MP3
Видео: MPEG4 Video (H264) 1280x720 30fps 2006kbps
Аудио 1: MP3 44100Hz stereo 192kbps
Video
ID : 0
Format : AVC
Format/Info : Advanced Video Codec
Format profile : Main@L5.1
Format settings, CABAC : Yes
Format settings, ReFrames : 1 frame
Codec ID : H264
Duration : 24mn 35s
Bit rate : 2 006 Kbps
Width : 1 280 pixels
Height : 720 pixels
Display aspect ratio : 16:9
Frame rate : 30.000 fps
Color space : YUV
Chroma subsampling : 4:2:0
Bit depth : 8 bits
Scan type : Progressive
Bits/(Pixel*Frame) : 0.073
Stream size : 353 MiB (91%)

Audio
ID : 1
Format : MPEG Audio
Format version : Version 1
Format profile : Layer 3
Codec ID : 55
Codec ID/Hint : MP3
Duration : 24mn 36s
Bit rate mode : Constant
Bit rate : 192 Kbps
Channel(s) : 2 channels
Sampling rate : 44.1 KHz
Compression mode : Lossy
Stream size : 33.8 MiB (9%)
Alignment : Split accross interleaves
Interleave, duration : 33 ms (1.00 video frame)
Interleave, preload duration : 128 ms
Writing library : LAMELAME_MAJOR_VERSI
Приятного просмотра! Пожалуйста, поддержите раздачу!
Спасибо за Ваши будующие комментарии!

Трекер:  [ 19-Дек-2013 14:12 ]

  

Скачать .torrent

Размер .torrent файла 15 KB


Размер: 389 MB
Хэш (hash) релиза: dfb561f9b749a46f0ccd082710e5315e244fdcc1

bot

Топик был перенесен в форум Хентай | С цензурой

Перенес Galfimbul

Хотите добавить комментарий к записи скачать торрент Aoi Has an Ecchi Job at a Bookstore

!Обратная связь