Скачать порно через торрент Idol Kouhosei Секс идолы UnionPeer.org бесплатно онлайн HD качество

Скачать новое порно 2015, 2014 новинки через торрент UnionPeer.org

Порно торрент бесплатно ЮнионПир.орг

Если у вас наблюдаются проблемы со скриншотами, переходом по ссылками, скачиванием торрентов - проблемы в блокировщике рекламы AdBlock. #хорошегоДня!


Статистика раздачи
Размер:  2.79 GB   |    Зарегистрирован:  3 года 11 месяцев   |    .torrent скачан:  209 раз   |   
Раздают:  1  
   
Загрузка...
 
Автор Сообщение

Galfimbul

avatar Galfimbul


Idol Kouhosei / アイドル候補生 / Секс идолы / Школьные идолы

Год производства: 2013 г.
Жанр: Big tits, Tiny tits, Oral sex, Titsjob
Серии: ep. 1
Продолжительность: 1х~19 min
Цензура: Есть

Озвучка: Японская (Оригинальная)

Режиссер: Oota Hideta
Автор оригинала: foerlord
Студия: PeaChpie

Описание RUS: Будь я автором этого хентая назвала бы школьный разврат, но всё же он называется не так а жаль. Трёх девушек Ami, Kay, Shizuka отправляют в школу для мальчиков, так как там учатся одни раздолбаи. По моему мнению лучшего мотиватора для учёбы и придумать нельзя, три красивых девчушки которые лишены мужского внимания с радостью направят молодых горячих парней на путь истинный. Девушек поселяют к одну из студентов старших курсов. Нет ну вы представляете, взяли и поселили, вот так просто к не понятно к кому. Бедные девочки в плену коньяка насильника и их уже не кто не спасёт, злой студент который держит их взаперти, связывает и насилуют вот это был бы сюжет ))) И вот они срывают с него одежду и трахают до потери пульса, конечно же нет ведь они только приехали, надо об устроиться в новом доме, сходить в ванну а потом .... суп с ежевикой. Хентай рисовался новичками в этой сфере и по этому им можно простить то что в нём практический отсутствует сюжет. © Ксения Нефёдова

Описание ENG: It's a new century and men have lost their sexual desires thus decreasing the number of marriages and births. In order to repopulate the world, the government decided to start a program to improve men's sex lives. Sex idols, girls who can sing, dance, and have sex with innumerable men, are now in need to help improve the stagnant society.

Информационные ссылки: AniDB - MAL - World Art - ХентайМаг

Качество видео: DVD5
Формат видео: DVD Video
Видео кодек: MPEG2
Аудио кодек: AC3
Видео: 720х480, (16:9), 29,970 кадров/сек, ~ 9200 Кбит/сек, NTSC
Аудио: JAP, AC-3, 2 канала, 192 Кбит/сек, 48,0 КГц
Общее
Полное имя : J:\VIDEO_TS\VTS_01_1.VOB
Формат : MPEG-PS
Размер файла : 1024 Мбайт
Продолжительность : 4 м. 44 с.
Общий поток : 30,2 Мбит/сек

Видео
Идентификатор : 224 (0xE0)
Формат : MPEG Video
Версия формата : Version 2
Профиль формата : Main@Main
Параметр BVOP формата : Да
Параметр матрицы формата : Выборочная
Параметр GOP формата : M=3, N=15
Продолжительность : 4 м. 44 с.
Битрейт : 29,4 Мбит/сек
Максимальный битрейт : 9200 Кбит/сек
Ширина : 720 пикселей
Высота : 480 пикселей
Соотношение сторон : 16:9
Частота кадров : 29,970 кадров/сек
Стандарт вещания : NTSC
Цветовое пространство : YUV
Субдискретизация насыщенности : 4:2:0
Битовая глубина : 8 бит
Тип развёртки : Чересстрочная
Порядок развёртки : Верхнее поле первое
Метод сжатия : С потерями
Бит/(Пиксели*Кадры) : 2.842
Временной код первого кадра : 01:00:00:00
Оригинал временного кода : Group of pictures header
Размер потока : 997 Мбайт (97%)

Аудио
Идентификатор : 189 (0xBD)-128 (0x80)
Формат : AC-3
Формат/Информация : Audio Coding 3
Расширение режима : CM (complete main)
Параметр Endianness формата : Big
Режим смешивания : DVD-Video
Продолжительность : 4 м. 44 с.
Вид битрейта : Постоянный
Битрейт : 192 Кбит/сек
Каналы : 2 канала
Расположение каналов : Front: L R
Частота : 48,0 КГц
Битовая глубина : 16 бит
Метод сжатия : С потерями
Задержка видео : -66 мс.
Размер потока : 6,50 Мбайт (1%)

Меню
Время раздачи: с 09 до 00.00 (Киев), отдача: 100 кб/с (анальный инет)
1 Большая просьба, помогайте другим скачать (тогда релизов будет больше)
2 Если нет сидов - пишите в лс
3 Если сдохли постеры и скриншоты - пишите в лс

Трекер:  [ 19-Дек-2013 14:12 ]

  

Скачать .torrent

Размер .torrent файла 14 KB


Размер: 2.79 GB
Хэш (hash) релиза: 7de9f762e0af093acd15b2546154ded066ef1215

bot

Топик был перенесен в форум Хентай | С цензурой

Перенес Galfimbul

Хотите добавить комментарий к записи скачать торрент Idol Kouhosei Секс идолы

!Обратная связь