Скачать через торрент музыку Завтрак у Тиффани Breakfast at Tiffanys бесплатно без регистрации torrent

Если у вас наблюдаются проблемы со скриншотами, переходом по ссылками, скачиванием торрентов - проблемы в блокировщике рекламы AdBlock. #хорошегоДня!


Статистика раздачи
Размер:  441 MB   |    Зарегистрирован:  3 года 9 месяцев   |    .torrent скачан:  43 раза   |   
Раздают:  1  
   
Загрузка...
 
Автор Сообщение

Galfimbul

avatar Galfimbul


Завтрак у Тиффани / Breakfast at Tiffany''s
Жанр: Score
Композитор: Henry Mancini
Год выпуска диска: 2013
Год выпуска фильма: 1961

Страна-производитель диска: US
Издатель (лейбл): Intrada Records
Номер по каталогу: MAF 7129
Аудиокодек: FLAC (*.flac)

Тип рипа: tracks+.cue
Битрейт аудио: lossless
Продолжительность: 01:19:04
Источник: forums.ffshrine.org
Наличие сканов в содержимом раздачи: да
01 - Main Title (Moon River)
02 - Paul Meets Cat
03 - Sally''s Tomato
04 - The Big Blowout
05 - Poor Fred
06 - Moon River (Cha Cha)
07 - Latin Golightly
08 - Something for Cat
09 - Loose Caboose - Part 1 (Ala Cha Cha)
10 - Loose Caboose - Part 2
11 - Moon River (vocal by Audrey Hepburn)
12 - Meet the Doc (with organ grinder)
13 - An Exceptional Person
14 - You''re so Skinny
15 - Turkey Eggs
16 - Hub Caps and Tail Lights
17 - Rats and Super Rats
18 - The Hard Way
19 - Rusty Trawle
20 - Holly
21 - A Lovely Place
22 - Bermuda Nights
23 - The Big Heist
24 - After the Ball
25 - Just Like Holly
26 - Wait a Minute
27 - Feathers
28 - Let''s Eat
29 - Where''s the Cat And End Title (Moon River)

The Extras
30 - Moon River (Audrey Hepburn & guitar)
31 - Moon River (piano and guitar)
32 - Moon River (harmonica and guitar)
33 - Meet the Doc (without organ grinder)
34 - Piano Practice No. 1
35 - Piano Practice No. 2
36 - Piano Practice No. 3
37 - Moon River (Demo)
38 - Moon River (Whistling)
X Lossless Decoder version 20131102 (145.0)

XLD extraction logfile from 2013-12-05 19:11:14 -0600

Henry Mancini / Breakfast At Tiffany''s (Intrada 2013)

Used drive : Memorex MRX-650LE v1 (revision 9M62)Media type : Pressed CD

Ripper mode : CDParanoia III 10.2Disable audio cache : OK for the drive with a cache less than 2750KiBMake use of C2 pointers : NORead offset correction : 6Max retry count : 100Gap status : Analyzed, Appended

TOC of the extracted CD Track | Start | Length | Start sector | End sector --------------------------------------------------------- 1 | 00:00:00 | 03:09:44 | 0 | 14218 2 | 03:09:44 | 01:25:34 | 14219 | 20627 3 | 04:35:03 | 05:00:37 | 20628 | 43164 4 | 09:35:40 | 01:07:06 | 43165 | 48195 5 | 10:42:46 | 03:25:00 | 48196 | 63570 6 | 14:07:46 | 02:35:30 | 63571 | 75225 7 | 16:43:01 | 03:07:40 | 75226 | 89290 8 | 19:50:41 | 04:51:00 | 89291 | 111115 9 | 24:41:41 | 03:24:74 | 111116 | 126489 10 | 28:06:40 | 02:14:74 | 126490 | 136613 11 | 30:21:39 | 02:05:65 | 136614 | 146053 12 | 32:27:29 | 01:38:59 | 146054 | 153462 13 | 34:06:13 | 02:59:23 | 153463 | 166910 14 | 37:05:36 | 00:59:38 | 166911 | 171373 15 | 38:04:74 | 02:46:72 | 171374 | 183895 16 | 40:51:71 | 02:18:67 | 183896 | 194312 17 | 43:10:63 | 02:28:45 | 194313 | 205457 18 | 45:39:33 | 00:57:00 | 205458 | 209732 19 | 46:36:33 | 00:26:71 | 209733 | 211753 20 | 47:03:29 | 01:58:04 | 211754 | 220607 21 | 49:01:33 | 01:34:28 | 220608 | 227685 22 | 50:35:61 | 00:25:38 | 227686 | 229598 23 | 51:01:24 | 04:04:39 | 229599 | 247937 24 | 55:05:63 | 01:14:39 | 247938 | 253526 25 | 56:20:27 | 01:42:08 | 253527 | 261184 26 | 58:02:35 | 00:46:28 | 261185 | 264662 27 | 58:48:63 | 01:16:38 | 264663 | 270400 28 | 60:05:26 | 01:41:03 | 270401 | 277978 29 | 61:46:29 | 03:57:70 | 277979 | 295823 30 | 65:44:24 | 01:39:68 | 295824 | 303316 31 | 67:24:17 | 01:39:71 | 303317 | 310812 32 | 69:04:13 | 01:38:08 | 310813 | 318170 33 | 70:42:21 | 01:40:02 | 318171 | 325672 34 | 72:22:23 | 01:39:38 | 325673 | 333135 35 | 74:01:61 | 01:49:35 | 333136 | 341345 36 | 75:51:21 | 00:56:34 | 341346 | 345579 37 | 76:47:55 | 02:01:29 | 345580 | 354683 38 | 78:49:09 | 00:15:11 | 354684 | 355819

AccurateRip Summary Disc not found in AccurateRip DB.

All Tracks Statistics Read error : 0 Skipped (treated as error) : 0 Edge jitter error (maybe fixed) : 0 Atom jitter error (maybe fixed) : 0 Drift error (maybe fixed) : 0 Dropped bytes error (maybe fixed) : 0 Duplicated bytes error (maybe fixed) : 0

Track 01 Filename : /Users/kgpat/Desktop/Convert/BreakfastTiffFLAC/01 Henry Mancini - Main Title (Moon River).flac Pre-gap length : 00:02:00

CRC32 hash : C47080CC CRC32 hash (skip zero) : 62373BAF AccurateRip v1 signature : FC6B4B9A AccurateRip v2 signature : B1C34556 ->Track not present in AccurateRip database. Statistics Read error : 0 Skipped (treated as error) : 0 Edge jitter error (maybe fixed) : 0 Atom jitter error (maybe fixed) : 0 Drift error (maybe fixed) : 0 Dropped bytes error (maybe fixed) : 0 Duplicated bytes error (maybe fixed) : 0

Track 02 Filename : /Users/kgpat/Desktop/Convert/BreakfastTiffFLAC/02 Henry Mancini - Paul Meets Cat.flac

CRC32 hash : FE66A407 CRC32 hash (skip zero) : F22EC5E9 AccurateRip v1 signature : 5D5EFF28 AccurateRip v2 signature : 718AEC49 ->Track not present in AccurateRip database. Statistics Read error : 0 Skipped (treated as error) : 0 Edge jitter error (maybe fixed) : 0 Atom jitter error (maybe fixed) : 0 Drift error (maybe fixed) : 0 Dropped bytes error (maybe fixed) : 0 Duplicated bytes error (maybe fixed) : 0

Track 03 Filename : /Users/kgpat/Desktop/Convert/BreakfastTiffFLAC/03 Henry Mancini - Sally''s Tomato.flac

CRC32 hash : 764DB165 CRC32 hash (skip zero) : 9B608F3A AccurateRip v1 signature : 092EEA89 AccurateRip v2 signature : 33A670BF ->Track not present in AccurateRip database. Statistics Read error : 0 Skipped (treated as error) : 0 Edge jitter error (maybe fixed) : 0 Atom jitter error (maybe fixed) : 0 Drift error (maybe fixed) : 0 Dropped bytes error (maybe fixed) : 0 Duplicated bytes error (maybe fixed) : 0

Track 04 Filename : /Users/kgpat/Desktop/Convert/BreakfastTiffFLAC/04 Henry Mancini - The Big Blowout.flac

CRC32 hash : A91F3B8F CRC32 hash (skip zero) : D453A322 AccurateRip v1 signature : C3554422 AccurateRip v2 signature : 9221253D ->Track not present in AccurateRip database. Statistics Read error : 0 Skipped (treated as error) : 0 Edge jitter error (maybe fixed) : 0 Atom jitter error (maybe fixed) : 0 Drift error (maybe fixed) : 0 Dropped bytes error (maybe fixed) : 0 Duplicated bytes error (maybe fixed) : 0

Track 05 Filename : /Users/kgpat/Desktop/Convert/BreakfastTiffFLAC/05 Henry Mancini - Poor Fred.flac

CRC32 hash : 43B91BA5 CRC32 hash (skip zero) : D18DD33F AccurateRip v1 signature : F12EF304 AccurateRip v2 signature : F571B664 ->Track not present in AccurateRip database. Statistics Read error : 0 Skipped (treated as error) : 0 Edge jitter error (maybe fixed) : 0 Atom jitter error (maybe fixed) : 0 Drift error (maybe fixed) : 0 Dropped bytes error (maybe fixed) : 0 Duplicated bytes error (maybe fixed) : 0

Track 06 Filename : /Users/kgpat/Desktop/Convert/BreakfastTiffFLAC/06 Henry Mancini - Moon River (Cha Cha).flac

CRC32 hash : 5724538D CRC32 hash (skip zero) : 6FBEC0E9 AccurateRip v1 signature : C84F828D AccurateRip v2 signature : B6D7AD4E ->Track not present in AccurateRip database. Statistics Read error : 0 Skipped (treated as error) : 0 Edge jitter error (maybe fixed) : 0 Atom jitter error (maybe fixed) : 0 Drift error (maybe fixed) : 0 Dropped bytes error (maybe fixed) : 0 Duplicated bytes error (maybe fixed) : 0

Track 07 Filename : /Users/kgpat/Desktop/Convert/BreakfastTiffFLAC/07 Henry Mancini - Latin Golightly.flac

CRC32 hash : 195AC92D CRC32 hash (skip zero) : 1C90C502 AccurateRip v1 signature : A9A542E1 AccurateRip v2 signature : C897D1EB ->Track not present in AccurateRip database. Statistics Read error : 0 Skipped (treated as error) : 0 Edge jitter error (maybe fixed) : 0 Atom jitter error (maybe fixed) : 0 Drift error (maybe fixed) : 0 Dropped bytes error (maybe fixed) : 0 Duplicated bytes error (maybe fixed) : 0

Track 08 Filename : /Users/kgpat/Desktop/Convert/BreakfastTiffFLAC/08 Henry Mancini - Something For Cat.flac

CRC32 hash : 997227C4 CRC32 hash (skip zero) : 305747A4 AccurateRip v1 signature : 9E6D6AD0 AccurateRip v2 signature : C6255169 ->Track not present in AccurateRip database. Statistics Read error : 0 Skipped (treated as error) : 0 Edge jitter error (maybe fixed) : 0 Atom jitter error (maybe fixed) : 0 Drift error (maybe fixed) : 0 Dropped bytes error (maybe fixed) : 0 Duplicated bytes error (maybe fixed) : 0

Track 09 Filename : /Users/kgpat/Desktop/Convert/BreakfastTiffFLAC/09 Henry Mancini - Loose Caboose - Part 1 (Ala Cha Cha).flac

CRC32 hash : 934ECA2F CRC32 hash (skip zero) : BBB04D6C AccurateRip v1 signature : E2740476 AccurateRip v2 signature : 5FC1F93B ->Track not present in AccurateRip database. Statistics Read error : 0 Skipped (treated as error) : 0 Edge jitter error (maybe fixed) : 0 Atom jitter error (maybe fixed) : 0 Drift error (maybe fixed) : 0 Dropped bytes error (maybe fixed) : 0 Duplicated bytes error (maybe fixed) : 0

Track 10 Filename : /Users/kgpat/Desktop/Convert/BreakfastTiffFLAC/10 Henry Mancini - Loose Caboose - Part 2.flac

CRC32 hash : 02AD3BD9 CRC32 hash (skip zero) : BED4A99C AccurateRip v1 signature : 4E958058 AccurateRip v2 signature : 22544A6A ->Track not present in AccurateRip database. Statistics Read error : 0 Skipped (treated as error) : 0 Edge jitter error (maybe fixed) : 0 Atom jitter error (maybe fixed) : 0 Drift error (maybe fixed) : 0 Dropped bytes error (maybe fixed) : 0 Duplicated bytes error (maybe fixed) : 0

Track 11 Filename : /Users/kgpat/Desktop/Convert/BreakfastTiffFLAC/11 Henry Mancini - Moon River (Vocal By Audrey Hepburn).flac

CRC32 hash : 5EEEA99D CRC32 hash (skip zero) : 0999C9F1 AccurateRip v1 signature : 45010E0D AccurateRip v2 signature : A1D06497 ->Track not present in AccurateRip database. Statistics Read error : 0 Skipped (treated as error) : 0 Edge jitter error (maybe fixed) : 0 Atom jitter error (maybe fixed) : 0 Drift error (maybe fixed) : 0 Dropped bytes error (maybe fixed) : 0 Duplicated bytes error (maybe fixed) : 0

Track 12 Filename : /Users/kgpat/Desktop/Convert/BreakfastTiffFLAC/12 Henry Mancini - Meet The Doc (With Organ Grinder).flac

CRC32 hash : 07AC7759 CRC32 hash (skip zero) : 6CCD23E7 AccurateRip v1 signature : D164232F AccurateRip v2 signature : 3B4429B0 ->Track not present in AccurateRip database. Statistics Read error : 0 Skipped (treated as error) : 0 Edge jitter error (maybe fixed) : 0 Atom jitter error (maybe fixed) : 0 Drift error (maybe fixed) : 0 Dropped bytes error (maybe fixed) : 0 Duplicated bytes error (maybe fixed) : 0

Track 13 Filename : /Users/kgpat/Desktop/Convert/BreakfastTiffFLAC/13 Henry Mancini - An Exceptional Person.flac

CRC32 hash : AC73A43F CRC32 hash (skip zero) : ECF0BC78 AccurateRip v1 signature : 7A435D3E AccurateRip v2 signature : 36C818B0 ->Track not present in AccurateRip database. Statistics Read error : 0 Skipped (treated as error) : 0 Edge jitter error (maybe fixed) : 0 Atom jitter error (maybe fixed) : 0 Drift error (maybe fixed) : 0 Dropped bytes error (maybe fixed) : 0 Duplicated bytes error (maybe fixed) : 0

Track 14 Filename : /Users/kgpat/Desktop/Convert/BreakfastTiffFLAC/14 Henry Mancini - You''re So Skinny.flac

CRC32 hash : A8B732FC CRC32 hash (skip zero) : C2464F63 AccurateRip v1 signature : 642DA058 AccurateRip v2 signature : 1826BE0A ->Track not present in AccurateRip database. Statistics Read error : 0 Skipped (treated as error) : 0 Edge jitter error (maybe fixed) : 0 Atom jitter error (maybe fixed) : 0 Drift error (maybe fixed) : 0 Dropped bytes error (maybe fixed) : 0 Duplicated bytes error (maybe fixed) : 0

Track 15 Filename : /Users/kgpat/Desktop/Convert/BreakfastTiffFLAC/15 Henry Mancini - Turkey Eggs.flac

CRC32 hash : F8ABC3C4 CRC32 hash (skip zero) : 92781517 AccurateRip v1 signature : 1D9C1BB4 AccurateRip v2 signature : 6E5D06F6 ->Track not present in AccurateRip database. Statistics Read error : 0 Skipped (treated as error) : 0 Edge jitter error (maybe fixed) : 0 Atom jitter error (maybe fixed) : 0 Drift error (maybe fixed) : 0 Dropped bytes error (maybe fixed) : 0 Duplicated bytes error (maybe fixed) : 0

Track 16 Filename : /Users/kgpat/Desktop/Convert/BreakfastTiffFLAC/16 Henry Mancini - Hub Caps And Tail Lights.flac

CRC32 hash : 4D645D6D CRC32 hash (skip zero) : 8842D3FE AccurateRip v1 signature : 4FA5FE01 AccurateRip v2 signature : B70C765A ->Track not present in AccurateRip database. Statistics Read error : 0 Skipped (treated as error) : 0 Edge jitter error (maybe fixed) : 0 Atom jitter error (maybe fixed) : 0 Drift error (maybe fixed) : 0 Dropped bytes error (maybe fixed) : 0 Duplicated bytes error (maybe fixed) : 0

Track 17 Filename : /Users/kgpat/Desktop/Convert/BreakfastTiffFLAC/17 Henry Mancini - Rats And Super Rats.flac

CRC32 hash : 931FA769 CRC32 hash (skip zero) : 3A101667 AccurateRip v1 signature : EA8832FC AccurateRip v2 signature : 760C2502 ->Track not present in AccurateRip database. Statistics Read error : 0 Skipped (treated as error) : 0 Edge jitter error (maybe fixed) : 0 Atom jitter error (maybe fixed) : 0 Drift error (maybe fixed) : 0 Dropped bytes error (maybe fixed) : 0 Duplicated bytes error (maybe fixed) : 0

Track 18 Filename : /Users/kgpat/Desktop/Convert/BreakfastTiffFLAC/18 Henry Mancini - The Hard Way.flac

CRC32 hash : 835E4D54 CRC32 hash (skip zero) : ED282FBA AccurateRip v1 signature : 4780441D AccurateRip v2 signature : 18BB9570 ->Track not present in AccurateRip database. Statistics Read error : 0 Skipped (treated as error) : 0 Edge jitter error (maybe fixed) : 0 Atom jitter error (maybe fixed) : 0 Drift error (maybe fixed) : 0 Dropped bytes error (maybe fixed) : 0 Duplicated bytes error (maybe fixed) : 0

Track 19 Filename : /Users/kgpat/Desktop/Convert/BreakfastTiffFLAC/19 Henry Mancini - Rusty Trawler.flac

CRC32 hash : E8949E96 CRC32 hash (skip zero) : 8CBB7CF3 AccurateRip v1 signature : E92F146E AccurateRip v2 signature : B0239D7C ->Track not present in AccurateRip database. Statistics Read error : 0 Skipped (treated as error) : 0 Edge jitter error (maybe fixed) : 0 Atom jitter error (maybe fixed) : 0 Drift error (maybe fixed) : 0 Dropped bytes error (maybe fixed) : 0 Duplicated bytes error (maybe fixed) : 0

Track 20 Filename : /Users/kgpat/Desktop/Convert/BreakfastTiffFLAC/20 Henry Mancini - Holly.flac

CRC32 hash : B78BE5D7 CRC32 hash (skip zero) : 1DB3079D AccurateRip v1 signature : 814CF8DF AccurateRip v2 signature : CA0C6E1F ->Track not present in AccurateRip database. Statistics Read error : 0 Skipped (treated as error) : 0 Edge jitter error (maybe fixed) : 0 Atom jitter error (maybe fixed) : 0 Drift error (maybe fixed) : 0 Dropped bytes error (maybe fixed) : 0 Duplicated bytes error (maybe fixed) : 0

Track 21 Filename : /Users/kgpat/Desktop/Convert/BreakfastTiffFLAC/21 Henry Mancini - A Lovely Place.flac

CRC32 hash : EFEE2534 CRC32 hash (skip zero) : 7564B17E AccurateRip v1 signature : BC5801B9 AccurateRip v2 signature : E47EF7B9 ->Track not present in AccurateRip database. Statistics Read error : 0 Skipped (treated as error) : 0 Edge jitter error (maybe fixed) : 0 Atom jitter error (maybe fixed) : 0 Drift error (maybe fixed) : 0 Dropped bytes error (maybe fixed) : 0 Duplicated bytes error (maybe fixed) : 0

Track 22 Filename : /Users/kgpat/Desktop/Convert/BreakfastTiffFLAC/22 Henry Mancini - Burmuda Nights.flac

CRC32 hash : 6C9F66CA CRC32 hash (skip zero) : F5301FDE AccurateRip v1 signature : 10328CBA AccurateRip v2 signature : 2A8D6673 ->Track not present in AccurateRip database. Statistics Read error : 0 Skipped (treated as error) : 0 Edge jitter error (maybe fixed) : 0 Atom jitter error (maybe fixed) : 0 Drift error (maybe fixed) : 0 Dropped bytes error (maybe fixed) : 0 Duplicated bytes error (maybe fixed) : 0

Track 23 Filename : /Users/kgpat/Desktop/Convert/BreakfastTiffFLAC/23 Henry Mancini - The Big Heist.flac

CRC32 hash : 340064F1 CRC32 hash (skip zero) : AA4DF0BF AccurateRip v1 signature : 576240BD AccurateRip v2 signature : 29BF81FB ->Track not present in AccurateRip database. Statistics Read error : 0 Skipped (treated as error) : 0 Edge jitter error (maybe fixed) : 0 Atom jitter error (maybe fixed) : 0 Drift error (maybe fixed) : 0 Dropped bytes error (maybe fixed) : 0 Duplicated bytes error (maybe fixed) : 0

Track 24 Filename : /Users/kgpat/Desktop/Convert/BreakfastTiffFLAC/24 Henry Mancini - After The Ball.flac

CRC32 hash : 1AED4CCB CRC32 hash (skip zero) : 09AFC05D AccurateRip v1 signature : CC3F395D AccurateRip v2 signature : 7B138A9C ->Track not present in AccurateRip database. Statistics Read error : 0 Skipped (treated as error) : 0 Edge jitter error (maybe fixed) : 0 Atom jitter error (maybe fixed) : 0 Drift error (maybe fixed) : 0 Dropped bytes error (maybe fixed) : 0 Duplicated bytes error (maybe fixed) : 0

Track 25 Filename : /Users/kgpat/Desktop/Convert/BreakfastTiffFLAC/25 Henry Mancini - Just Like Holly.flac

CRC32 hash : 7CD5C5B3 CRC32 hash (skip zero) : 0FBDF214 AccurateRip v1 signature : 1AFBEBC8 AccurateRip v2 signature : BF239A6B ->Track not present in AccurateRip database. Statistics Read error : 0 Skipped (treated as error) : 0 Edge jitter error (maybe fixed) : 0 Atom jitter error (maybe fixed) : 0 Drift error (maybe fixed) : 0 Dropped bytes error (maybe fixed) : 0 Duplicated bytes error (maybe fixed) : 0

Track 26 Filename : /Users/kgpat/Desktop/Convert/BreakfastTiffFLAC/26 Henry Mancini - Wait A Minute.flac

CRC32 hash : C8974897 CRC32 hash (skip zero) : 1E0109CA AccurateRip v1 signature : 8E0B8F78 AccurateRip v2 signature : 797A0DEC ->Track not present in AccurateRip database. Statistics Read error : 0 Skipped (treated as error) : 0 Edge jitter error (maybe fixed) : 0 Atom jitter error (maybe fixed) : 0 Drift error (maybe fixed) : 0 Dropped bytes error (maybe fixed) : 0 Duplicated bytes error (maybe fixed) : 0

Track 27 Filename : /Users/kgpat/Desktop/Convert/BreakfastTiffFLAC/27 Henry Mancini - Feathers.flac

CRC32 hash : 0DECE16B CRC32 hash (skip zero) : F9A11C6C AccurateRip v1 signature : 07D99DCD AccurateRip v2 signature : C9551DC0 ->Track not present in AccurateRip database. Statistics Read error : 0 Skipped (treated as error) : 0 Edge jitter error (maybe fixed) : 0 Atom jitter error (maybe fixed) : 0 Drift error (maybe fixed) : 0 Dropped bytes error (maybe fixed) : 0 Duplicated bytes error (maybe fixed) : 0

Track 28 Filename : /Users/kgpat/Desktop/Convert/BreakfastTiffFLAC/28 Henry Mancini - Let''s Eat.flac

CRC32 hash : BBF96D7E CRC32 hash (skip zero) : 1B603F48 AccurateRip v1 signature : D3FEF0D1 AccurateRip v2 signature : A4F8C7A1 ->Track not present in AccurateRip database. Statistics Read error : 0 Skipped (treated as error) : 0 Edge jitter error (maybe fixed) : 0 Atom jitter error (maybe fixed) : 0 Drift error (maybe fixed) : 0 Dropped bytes error (maybe fixed) : 0 Duplicated bytes error (maybe fixed) : 0

Track 29 Filename : /Users/kgpat/Desktop/Convert/BreakfastTiffFLAC/29 Henry Mancini - Where''s The Cat? And End Title (Moon River).flac

CRC32 hash : 975984EC CRC32 hash (skip zero) : 54D4F982 AccurateRip v1 signature : 876F35B6 AccurateRip v2 signature : 46F4C95A ->Track not present in AccurateRip database. Statistics Read error : 0 Skipped (treated as error) : 0 Edge jitter error (maybe fixed) : 0 Atom jitter error (maybe fixed) : 0 Drift error (maybe fixed) : 0 Dropped bytes error (maybe fixed) : 0 Duplicated bytes error (maybe fixed) : 0

Track 30 Filename : /Users/kgpat/Desktop/Convert/BreakfastTiffFLAC/30 Henry Mancini - Moon River (Audrey Hepburn & Guitar).flac

CRC32 hash : 2DCDC2FB CRC32 hash (skip zero) : 2F06EE8C AccurateRip v1 signature : 8070B437 AccurateRip v2 signature : 183D946E ->Track not present in AccurateRip database. Statistics Read error : 0 Skipped (treated as error) : 0 Edge jitter error (maybe fixed) : 0 Atom jitter error (maybe fixed) : 0 Drift error (maybe fixed) : 0 Dropped bytes error (maybe fixed) : 0 Duplicated bytes error (maybe fixed) : 0

Track 31 Filename : /Users/kgpat/Desktop/Convert/BreakfastTiffFLAC/31 Henry Mancini - Moon River (Piano And Guitar).flac

CRC32 hash : FB72E08D CRC32 hash (skip zero) : E20F038D AccurateRip v1 signature : C2D82583 AccurateRip v2 signature : 301D4750 ->Track not present in AccurateRip database. Statistics Read error : 0 Skipped (treated as error) : 0 Edge jitter error (maybe fixed) : 0 Atom jitter error (maybe fixed) : 0 Drift error (maybe fixed) : 0 Dropped bytes error (maybe fixed) : 0 Duplicated bytes error (maybe fixed) : 0

Track 32 Filename : /Users/kgpat/Desktop/Convert/BreakfastTiffFLAC/32 Henry Mancini - Moon River (Harmonica And Guitar).flac

CRC32 hash : 07E5831D CRC32 hash (skip zero) : D3269D2F AccurateRip v1 signature : 13E92114 AccurateRip v2 signature : 20212A40 ->Track not present in AccurateRip database. Statistics Read error : 0 Skipped (treated as error) : 0 Edge jitter error (maybe fixed) : 0 Atom jitter error (maybe fixed) : 0 Drift error (maybe fixed) : 0 Dropped bytes error (maybe fixed) : 0 Duplicated bytes error (maybe fixed) : 0

Track 33 Filename : /Users/kgpat/Desktop/Convert/BreakfastTiffFLAC/33 Henry Mancini - Meet The Doc (Without Organ Grinder).flac

CRC32 hash : D5A9932A CRC32 hash (skip zero) : 1817D25C AccurateRip v1 signature : B9C5E445 AccurateRip v2 signature : 926FC26D ->Track not present in AccurateRip database. Statistics Read error : 0 Skipped (treated as error) : 0 Edge jitter error (maybe fixed) : 0 Atom jitter error (maybe fixed) : 0 Drift error (maybe fixed) : 0 Dropped bytes error (maybe fixed) : 0 Duplicated bytes error (maybe fixed) : 0

Track 34 Filename : /Users/kgpat/Desktop/Convert/BreakfastTiffFLAC/34 Henry Mancini - Piano Practice No. 1.flac

CRC32 hash : ABFC96AE CRC32 hash (skip zero) : 260B7AB7 AccurateRip v1 signature : AE81836B AccurateRip v2 signature : 0796C148 ->Track not present in AccurateRip database. Statistics Read error : 0 Skipped (treated as error) : 0 Edge jitter error (maybe fixed) : 0 Atom jitter error (maybe fixed) : 0 Drift error (maybe fixed) : 0 Dropped bytes error (maybe fixed) : 0 Duplicated bytes error (maybe fixed) : 0

Track 35 Filename : /Users/kgpat/Desktop/Convert/BreakfastTiffFLAC/35 Henry Mancini - Piano Practice No. 2.flac

CRC32 hash : 8153CFE1 CRC32 hash (skip zero) : 8E8E9CC0 AccurateRip v1 signature : 289B2A57 AccurateRip v2 signature : 416BAEDF ->Track not present in AccurateRip database. Statistics Read error : 0 Skipped (treated as error) : 0 Edge jitter error (maybe fixed) : 0 Atom jitter error (maybe fixed) : 0 Drift error (maybe fixed) : 0 Dropped bytes error (maybe fixed) : 0 Duplicated bytes error (maybe fixed) : 0

Track 36 Filename : /Users/kgpat/Desktop/Convert/BreakfastTiffFLAC/36 Henry Mancini - Piano Practice No. 3.flac

CRC32 hash : A3E506CE CRC32 hash (skip zero) : 3CA37A85 AccurateRip v1 signature : 9CA06875 AccurateRip v2 signature : E93DAECA ->Track not present in AccurateRip database. Statistics Read error : 0 Skipped (treated as error) : 0 Edge jitter error (maybe fixed) : 0 Atom jitter error (maybe fixed) : 0 Drift error (maybe fixed) : 0 Dropped bytes error (maybe fixed) : 0 Duplicated bytes error (maybe fixed) : 0

Track 37 Filename : /Users/kgpat/Desktop/Convert/BreakfastTiffFLAC/37 Henry Mancini - Moon River (Demo).flac

CRC32 hash : 7510DE3E CRC32 hash (skip zero) : 04A5960E AccurateRip v1 signature : 05F32B0B AccurateRip v2 signature : 13E3FB9F ->Track not present in AccurateRip database. Statistics Read error : 0 Skipped (treated as error) : 0 Edge jitter error (maybe fixed) : 0 Atom jitter error (maybe fixed) : 0 Drift error (maybe fixed) : 0 Dropped bytes error (maybe fixed) : 0 Duplicated bytes error (maybe fixed) : 0

Track 38 Filename : /Users/kgpat/Desktop/Convert/BreakfastTiffFLAC/38 Henry Mancini - Moon River (Whistling).flac

CRC32 hash : F4977EEB CRC32 hash (skip zero) : DB742B25 AccurateRip v1 signature : 124D7265 AccurateRip v2 signature : F970D7AB ->Track not present in AccurateRip database. Statistics Read error : 0 Skipped (treated as error) : 0 Edge jitter error (maybe fixed) : 0 Atom jitter error (maybe fixed) : 0 Drift error (maybe fixed) : 0 Dropped bytes error (maybe fixed) : 0 Duplicated bytes error (maybe fixed) : 0

No errors occurred

End of status report
TITLE "Breakfast At Tiffany''s (Intrada 2013)"PERFORMER "Henry Mancini"REM GENRE "Soundtrack"REM DATE "1961"REM DISCNUMBER 1REM TOTALDISCS 1REM DISCID 54128826FILE "01 Henry Mancini - Main Title (Moon River).flac" WAVE TRACK 01 AUDIO TITLE "Main Title (Moon River)" SONGWRITER "Henry Mancini" ISRC USKLP1300497 INDEX 01 00:00:00FILE "02 Henry Mancini - Paul Meets Cat.flac" WAVE TRACK 02 AUDIO TITLE "Paul Meets Cat" SONGWRITER "Henry Mancini" ISRC USKLP1300498 INDEX 01 00:00:00FILE "03 Henry Mancini - Sally''s Tomato.flac" WAVE TRACK 03 AUDIO TITLE "Sally''s Tomato" SONGWRITER "Henry Mancini" ISRC USKLP1300499 INDEX 01 00:00:00FILE "04 Henry Mancini - The Big Blowout.flac" WAVE TRACK 04 AUDIO TITLE "The Big Blowout" SONGWRITER "Henry Mancini" ISRC USKLP1300500 INDEX 01 00:00:00FILE "05 Henry Mancini - Poor Fred.flac" WAVE TRACK 05 AUDIO TITLE "Poor Fred" SONGWRITER "Henry Mancini" ISRC USKLP1300501 INDEX 01 00:00:00FILE "06 Henry Mancini - Moon River (Cha Cha).flac" WAVE TRACK 06 AUDIO TITLE "Moon River (Cha Cha)" SONGWRITER "Henry Mancini" ISRC USKLP1300502 INDEX 01 00:00:00FILE "07 Henry Mancini - Latin Golightly.flac" WAVE TRACK 07 AUDIO TITLE "Latin Golightly" SONGWRITER "Henry Mancini" ISRC USKLP1300503 INDEX 01 00:00:00FILE "08 Henry Mancini - Something For Cat.flac" WAVE TRACK 08 AUDIO TITLE "Something For Cat" SONGWRITER "Henry Mancini" ISRC USKLP1300504 INDEX 01 00:00:00FILE "09 Henry Mancini - Loose Caboose - Part 1 (Ala Cha Cha).flac" WAVE TRACK 09 AUDIO TITLE "Loose Caboose - Part 1 (Ala Cha Cha)" SONGWRITER "Henry Mancini" ISRC USKLP1300505 INDEX 01 00:00:00FILE "10 Henry Mancini - Loose Caboose - Part 2.flac" WAVE TRACK 10 AUDIO TITLE "Loose Caboose - Part 2" SONGWRITER "Henry Mancini" ISRC USKLP1300506 INDEX 01 00:00:00FILE "11 Henry Mancini - Moon River (Vocal By Audrey Hepburn).flac" WAVE TRACK 11 AUDIO TITLE "Moon River (Vocal By Audrey Hepburn)" SONGWRITER "Henry Mancini" ISRC USKLP1300507 INDEX 01 00:00:00FILE "12 Henry Mancini - Meet The Doc (With Organ Grinder).flac" WAVE TRACK 12 AUDIO TITLE "Meet The Doc (With Organ Grinder)" SONGWRITER "Henry Mancini" ISRC USKLP1300508 INDEX 01 00:00:00FILE "13 Henry Mancini - An Exceptional Person.flac" WAVE TRACK 13 AUDIO TITLE "An Exceptional Person" SONGWRITER "Henry Mancini" ISRC USKLP1300509 INDEX 01 00:00:00FILE "14 Henry Mancini - You''re So Skinny.flac" WAVE TRACK 14 AUDIO TITLE "You''re So Skinny" SONGWRITER "Henry Mancini" ISRC USKLP1300510 INDEX 01 00:00:00FILE "15 Henry Mancini - Turkey Eggs.flac" WAVE TRACK 15 AUDIO TITLE "Turkey Eggs" SONGWRITER "Henry Mancini" ISRC USKLP1300511 INDEX 01 00:00:00FILE "16 Henry Mancini - Hub Caps And Tail Lights.flac" WAVE TRACK 16 AUDIO TITLE "Hub Caps And Tail Lights" SONGWRITER "Henry Mancini" ISRC USKLP1300512 INDEX 01 00:00:00FILE "17 Henry Mancini - Rats And Super Rats.flac" WAVE TRACK 17 AUDIO TITLE "Rats And Super Rats" SONGWRITER "Henry Mancini" ISRC USKLP1300513 INDEX 01 00:00:00FILE "18 Henry Mancini - The Hard Way.flac" WAVE TRACK 18 AUDIO TITLE "The Hard Way" SONGWRITER "Henry Mancini" ISRC USKLP1300514 INDEX 01 00:00:00FILE "19 Henry Mancini - Rusty Trawler.flac" WAVE TRACK 19 AUDIO TITLE "Rusty Trawler" SONGWRITER "Henry Mancini" ISRC USKLP1300515 INDEX 01 00:00:00FILE "20 Henry Mancini - Holly.flac" WAVE TRACK 20 AUDIO TITLE "Holly" SONGWRITER "Henry Mancini" ISRC USKLP1300516 INDEX 01 00:00:00FILE "21 Henry Mancini - A Lovely Place.flac" WAVE TRACK 21 AUDIO TITLE "A Lovely Place" SONGWRITER "Henry Mancini" ISRC USKLP1300517 INDEX 01 00:00:00FILE "22 Henry Mancini - Burmuda Nights.flac" WAVE TRACK 22 AUDIO TITLE "Burmuda Nights" SONGWRITER "Henry Mancini" ISRC USKLP1300518 INDEX 01 00:00:00FILE "23 Henry Mancini - The Big Heist.flac" WAVE TRACK 23 AUDIO TITLE "The Big Heist" SONGWRITER "Henry Mancini" ISRC USKLP1300519 INDEX 01 00:00:00FILE "24 Henry Mancini - After The Ball.flac" WAVE TRACK 24 AUDIO TITLE "After The Ball" SONGWRITER "Henry Mancini" ISRC USKLP1300520 INDEX 01 00:00:00FILE "25 Henry Mancini - Just Like Holly.flac" WAVE TRACK 25 AUDIO TITLE "Just Like Holly" SONGWRITER "Henry Mancini" ISRC USKLP1300521 INDEX 01 00:00:00FILE "26 Henry Mancini - Wait A Minute.flac" WAVE TRACK 26 AUDIO TITLE "Wait A Minute" SONGWRITER "Henry Mancini" ISRC USKLP1300522 INDEX 01 00:00:00FILE "27 Henry Mancini - Feathers.flac" WAVE TRACK 27 AUDIO TITLE "Feathers" SONGWRITER "Henry Mancini" ISRC USKLP1300523 INDEX 01 00:00:00FILE "28 Henry Mancini - Let''s Eat.flac" WAVE TRACK 28 AUDIO TITLE "Let''s Eat" SONGWRITER "Henry Mancini" ISRC USKLP1300524 INDEX 01 00:00:00FILE "29 Henry Mancini - Where''s The Cat? And End Title (Moon River).flac" WAVE TRACK 29 AUDIO TITLE "Where''s The Cat? And End Title (Moon River)" SONGWRITER "Henry Mancini" ISRC USKLP1300525 INDEX 01 00:00:00FILE "30 Henry Mancini - Moon River (Audrey Hepburn & Guitar).flac" WAVE TRACK 30 AUDIO TITLE "Moon River (Audrey Hepburn & Guitar)" SONGWRITER "Henry Mancini" ISRC USKLP1300526 INDEX 01 00:00:00FILE "31 Henry Mancini - Moon River (Piano And Guitar).flac" WAVE TRACK 31 AUDIO TITLE "Moon River (Piano And Guitar)" SONGWRITER "Henry Mancini" ISRC USKLP1300527 INDEX 01 00:00:00FILE "32 Henry Mancini - Moon River (Harmonica And Guitar).flac" WAVE TRACK 32 AUDIO TITLE "Moon River (Harmonica And Guitar)" SONGWRITER "Henry Mancini" ISRC USKLP1300528 INDEX 01 00:00:00FILE "33 Henry Mancini - Meet The Doc (Without Organ Grinder).flac" WAVE TRACK 33 AUDIO TITLE "Meet The Doc (Without Organ Grinder)" SONGWRITER "Henry Mancini" ISRC USKLP1300529 INDEX 01 00:00:00FILE "34 Henry Mancini - Piano Practice No. 1.flac" WAVE TRACK 34 AUDIO TITLE "Piano Practice No. 1" SONGWRITER "Henry Mancini" ISRC USKLP1300530 INDEX 01 00:00:00FILE "35 Henry Mancini - Piano Practice No. 2.flac" WAVE TRACK 35 AUDIO TITLE "Piano Practice No. 2" SONGWRITER "Henry Mancini" ISRC USKLP1300531 INDEX 01 00:00:00FILE "36 Henry Mancini - Piano Practice No. 3.flac" WAVE TRACK 36 AUDIO TITLE "Piano Practice No. 3" SONGWRITER "Henry Mancini" ISRC USKLP1300532 INDEX 01 00:00:00FILE "37 Henry Mancini - Moon River (Demo).flac" WAVE TRACK 37 AUDIO TITLE "Moon River (Demo)" SONGWRITER "Henry Mancini" ISRC USKLP1300533 INDEX 01 00:00:00FILE "38 Henry Mancini - Moon River (Whistling).flac" WAVE TRACK 38 AUDIO TITLE "Moon River (Whistling)" SONGWRITER "Henry Mancini" ISRC USKLP1300534 INDEX 01 00:00:00
Score: 55 (out of 100)
The following properties decreased the score:
No "Scan ReplayGain" info (does not affect audio data), -1 point [99]
Inconsistency in error sector(s) not found on every track, -5 points [94]
No test before copy on track 1, -1 points [93]
No test before copy on track 2, -1 points [92]
No test before copy on track 3, -1 points [91]
No test before copy on track 4, -1 points [90]
No test before copy on track 5, -1 points [89]
No test before copy on track 6, -1 points [88]
No test before copy on track 7, -1 points [87]
No test before copy on track 8, -1 points [86]
No test before copy on track 9, -1 points [85]
No test before copy on track 10, -1 points [84]
No test before copy on track 11, -1 points [83]
No test before copy on track 12, -1 points [82]
No test before copy on track 13, -1 points [81]
No test before copy on track 14, -1 points [80]
No test before copy on track 15, -1 points [79]
No test before copy on track 16, -1 points [78]
No test before copy on track 17, -1 points [77]
No test before copy on track 18, -1 points [76]
No test before copy on track 19, -1 points [75]
No test before copy on track 20, -1 points [74]
No test before copy on track 21, -1 points [73]
No test before copy on track 22, -1 points [72]
No test before copy on track 23, -1 points [71]
No test before copy on track 24, -1 points [70]
No test before copy on track 25, -1 points [69]
No test before copy on track 26, -1 points [68]
No test before copy on track 27, -1 points [67]
No test before copy on track 28, -1 points [66]
No test before copy on track 29, -1 points [65]
No test before copy on track 30, -1 points [64]
No test before copy on track 31, -1 points [63]
No test before copy on track 32, -1 points [62]
No test before copy on track 33, -1 points [61]
No test before copy on track 34, -1 points [60]
No test before copy on track 35, -1 points [59]
No test before copy on track 36, -1 points [58]
No test before copy on track 37, -1 points [57]
No test before copy on track 38, -1 points [56]
XLD Checksum plugin not installed (no XLD Signature present), -1 point [55]
At long last! Henry Mancini''s all-time most famous score becomes available in its original Academy Award-winning soundtrack performance, in stereo, complete with all knock-out big band numbers and dramatic orchestral cues intact. And achoring all, big surprise, is Mancini & Mercer''s also Academy Award-winning masterpiece "Moon River" sung by Audrey Hepburn. They don''t get any more famous. When 1961 Blake Edwards feature, from novel by Truman Capote, first hit screen, movie history was made. Hepburn in her signature role, along with George Peppard, Patricia Neal and Mickey Rooney, bring warmth, romance, fun, tenderness, sorrow, drama all to beautiful tale, with bittersweet Buddy Ebsen earning particular praise. And then there is Cat. Mix Hepburn, Peppard, Cat and Mancini''s note-perfect swell of strings and horns soaring with a powerful full orchestral reading of "Moon River" in that legendary finale... not a viewer in the audience avoids the tears. And none of it has ever been released before, until now! RCA issued multi award-winning and best-selling LP in 1961, offering just 30 minutes of completely re-arranged music in dance fashion. Album was admittedly a masterful selection of Mancini''s all-time greatest big band numbers. "Something For Cat" is an absolute gem! But, incredibly, that same album omitted "Moon River" save the instrumental opening titles and a cha-cha arrangement. Now enjoy all of those moving variants heard throughout actual soundtrack. But there is more! Note also the dramatic scoring as Ebsen''s "Doc" reveals himself, the complete original version of the heist sequence and the haunting, saddened parting scene at the bus station. Also savor those fabulous big band numbers in their full length, original versions complete with dazzling solo passages, blazing final codas. If that isn''t enough, enjoy other unused versions of "Moon River" made during the sessions plus rare demo, all courtesy Paramount Pictures. Informative notes by Jeff Bond grace interior of booklet, original campaign artwork wraps up memorable package in beautiful bow. Henry Mancini conducts, delivers his greatest masterpiece!


Трекер:  [ 14-Дек-2013 21:43 ]

  

Скачать .torrent

Размер .torrent файла 21 KB


Размер: 441 MB
Хэш (hash) релиза: 1d816b6901f1bca87c3e1abd5dbc6bd3a54731ca

bot

Топик был перенесен в форум Саундтреки к фильмам и мультфильмам (lossless)

Перенес Galfimbul

Хотите добавить комментарий к записи скачать торрент Завтрак у Тиффани Breakfast at Tiffanys

!Обратная связь