Скачать порно через торрент The Over 50 Girls 55 - баба ягодка опять UnionPeer.org бесплатно онлайн HD качество

Скачать новое порно 2015, 2014 новинки через торрент UnionPeer.org

Порно торрент бесплатно ЮнионПир.орг

Если у вас наблюдаются проблемы со скриншотами, переходом по ссылками, скачиванием торрентов - проблемы в блокировщике рекламы AdBlock. #хорошегоДня!


Статистика раздачи
Размер:  1.47 GB   |    Зарегистрирован:  3 года 8 месяцев   |    .torrent скачан:  498 раз   |   
Раздают:  1  
   
Загрузка...
 
Автор Сообщение

LinGr

avatar LinGr



Оригинальное название: The Over 50 Girls
Год выхода: 1999
Страна: США
Жанр: Mature, All Sex, Compilation
Продолжительность: 02:27:39
Сценарий и режиссура: M. Beckman
Студия: Leisure Time Entertainment
В ролях: Brittany O'Neil, Coral Sands, Corkey James, Diana Richards, Jessica Jewel, Kitty Foxx, Raquel DeVine, Shablee.
Перевод: Любительский (одноголосый, SP Company)
Субтитры: нет
Описание: Grandma's still very much can. And not necessarily for it to warm them prislonyat wall.Sufficiently large plastic member to his eyes lit up and ready pussy. Of course, beauty is not so elastic as to twenty years, but the desire and experience - more than enough. Not every young woman conceive using sperm as a substitute for milk in coffee. In practice, instead of calories!
Перевод: Бабушки еще очень даже могут. Причем совсем не обязательно для этого прислонять их к теплой стенке. Достаточно огромного пластмассового члена, чтобы глазки загорелись, а письки приготовились. Конечно, прелести уже не такие упругие, как в двадцать лет, зато желания и опыта – хоть отбавляй. Не каждая молодуха додумается использовать сперму в качестве заменителя молока в кофе. Практически, вместо калорий!
Качество: DVDRip
Формат: AVI
Видео кодек: XviD
Видео: XviD 64, 560x416 (4:3), 25 fps, 1199 kbps avg, 0.206 bit/pixel
Аудио кодек: AC3
Звук: AC3 Dolby Digital, 48 kHz, 2/0 (L,R) ch, 192.00 kbps avg
1> 4 mature ladies in les scene. One is real chubby.
2> Mature Blonde & guy.
3> 800 Number ad.
4> Brittany solo scene with music sound track only. Ron Jeremy joins.
5> Mature Blonde on bed. Solo. Ron Jeremy joins.
6> Diana & Corkey & guy in kitchen.
7> Shablee & Dave Hardman.
8> Kitty & Rodney Moore.
9> Racquel & Jessica in les scene.
10> Mature Blonde & Rodney Moore.
11> 800 Number add with Coral Sands.
....The Over 50 Girls.avi
General
Complete name : The Over 50 Girls.avi
Format : AVI
Format/Info : Audio Video Interleave
File size : 1.47 GiB
Duration : 2h 30mn
Overall bit rate : 1 398 Kbps
Writing application : VirtualDubMod 1.5.4.1 (build 2178/release)
Writing library : VirtualDubMod build 2178/release
Video #0
ID : 0
Format : MPEG-4 Visual
Format profile : AdvancedSimple@L5
Format settings, BVOP : Yes
Format settings, QPel : No
Format settings, GMC : No warppoints
Format settings, Matrix : Custom
Codec ID : XVID
Codec ID/Hint : XviD
Duration : 2h 30mn
Bit rate : 1 199 Kbps
Width : 560 pixels
Height : 416 pixels
Display aspect ratio : 4:3
Frame rate : 25.000 fps
Resolution : 24 bits
Colorimetry : 4:2:0
Scan type : Progressive
Bits/(Pixel*Frame) : 0.206
Stream size : 1.26 GiB (86%)
Writing library : XviD 64
Audio #1
ID : 1
Format : AC-3
Format/Info : Audio Coding 3
Codec ID : 2000
Duration : 2h 30mn
Bit rate mode : Constant
Bit rate : 192 Kbps
Channel(s) : 2 channels
Channel positions : L R
Sampling rate : 48.0 KHz
Stream size : 206 MiB (14%)
Alignment : Split accross interleaves
Interleave, duration : 96 ms (2.40 video frames)
Interleave, preload duration : 96 ms
Language : Russian


Трекер:  [ 05-Дек-2013 20:06 ]

  

Скачать .torrent

Размер .torrent файла 15 KB


Размер: 1.47 GB
Хэш (hash) релиза: 9dd76f31749b9a5d98b0dbc9078a5d48c05f0e92

Торренты, похожие на The Over 50 Girls 55 - баба ягодка опять скачать торрент

Форум Название Автор Размер S L Добавлен
Порно фильмы без сюжета ·· The Over 50 Girls / 55 - Баба Ягодка Опять (M. Beckman, Leisure Time Entertainment) [1999 г., Mature, All Sex, Compilation, DVD5] [rus] - (С русским переводом) Galfimbul 52055019524.85 GB 0 0 1315586152

19:35

9-Сен-11

Еще никто не оставлял запись к записи скачать торрент The Over 50 Girls 55 - баба ягодка опять . Будь первым!

!Обратная связь