Скачать порно через торрент Education Perverse à La Française UnionPeer.org бесплатно онлайн HD качество

Скачать новое порно 2015, 2014 новинки через торрент UnionPeer.org

Порно торрент бесплатно ЮнионПир.орг

Если у вас наблюдаются проблемы со скриншотами, переходом по ссылками, скачиванием торрентов - проблемы в блокировщике рекламы AdBlock. #хорошегоДня!


Статистика раздачи
Размер:  700 MB   |    Зарегистрирован:  3 года 8 месяцев   |    .torrent скачан:  171 раз   |   
Раздают:  1  
   
Загрузка...
 
Автор Сообщение

LinGr

avatar LinGr


Education Perverse à La Française
Год производства: 2013 г.
Страна: FR
Жанр: Orgy(Group), Anal, Oral
Продолжительность: 1h 19mn
Режиссер: Max Antoine
Студия: Fred Coppula Prod

В ролях: Angell Summers, Nasta Zya, Sabrina Sweet, Mike Angelo, Michael Cheritto, Rico Simmons

Доп. информация: http://www.dorcelstore.com/fr/education-perverse-a-la-francaise.html#
Format : AVI
Format/Info : Audio Video Interleave
File size : 700 MiB
Duration : 1h 19mn
Overall bit rate : 1 234 Kbps
Writing application : FairUse Wizard - http://fairusewizard.com
Writing library : The best and REALLY easy backup tool

Video
ID : 0
Format : MPEG-4 Visual
Format profile : Advanced Simple@L5
Format settings, BVOP : 2
Format settings, QPel : No
Format settings, GMC : No warppoints
Format settings, Matrix : Default (H.263)
Muxing mode : Packed bitstream
Codec ID : XVID
Codec ID/Hint : XviD
Duration : 1h 19mn
Bit rate : 1 097 Kbps
Width : 640 pixels
Height : 352 pixels
Display aspect ratio : 16:9
Frame rate : 25.000 fps
Color space : YUV
Chroma subsampling : 4:2:0
Bit depth : 8 bits
Scan type : Progressive
Compression mode : Lossy
Bits/(Pixel*Frame) : 0.195
Stream size : 622 MiB (89%)
Writing library : XviD 1.2.1 (UTC 2008-12-04)

Audio
ID : 1
Format : MPEG Audio
Format version : Version 1
Format profile : Layer 3
Mode : Joint stereo
Mode extension : MS Stereo
Codec ID : 55
Codec ID/Hint : MP3
Duration : 1h 19mn
Bit rate mode : Constant
Bit rate : 128 Kbps
Channel(s) : 2 channels
Sampling rate : 48.0 KHz
Compression mode : Lossy
Stream size : 72.6 MiB (10%)
Alignment : Aligned on interleaves
Interleave, duration : 40 ms (1.00 video frame)
Interleave, preload duration : 504 ms
Writing library : LAME3.97
Encoding settings : -m j -V 4 -q 2 -lowpass 17 -b 128


Трекер:  [ 03-Дек-2013 19:43 ]

  

Скачать .torrent

Размер .torrent файла 14 KB


Размер: 700 MB
Хэш (hash) релиза: 4e31892a0074c1f4c740bde498e87b2dedfcd8c1

Торренты, похожие на Education Perverse à La Française скачать торрент

Форум Название Автор Размер S L Добавлен
Гонзо-фильмы ·· Education Perverse A La Francaise / Education perverse à la Française (Max Antoine, Fred Coppula Prod) [2013 г., All Sex, Oral, Anal, Straight, Group Sex, Stockings, DVDRip] Galfimbul 734580527701 MB 2 0 1497622268

17:11

16-Июн-17

Еще никто не оставлял запись к записи скачать торрент Education Perverse à La Française . Будь первым!

!Обратная связь