Скачать через торрент музыку Страсти Жанны д`Арк La passion de Jeanne dArc бесплатно без регистрации torrent

Если у вас наблюдаются проблемы со скриншотами, переходом по ссылками, скачиванием торрентов - проблемы в блокировщике рекламы AdBlock. #хорошегоДня!


Статистика раздачи
Размер:  249 MB   |    Зарегистрирован:  3 года 9 месяцев   |    .torrent скачан:  30 раз   |   
Раздают:  1  
   
Загрузка...
 
Автор Сообщение

Galfimbul

avatar Galfimbul


Страсти Жанны д`Арк / La passion de Jeanne d''Arc

Название альбома: Voices of Light
Жанр: Score
Композитор: Richard Einhorn
Год выпуска диска: 1995
Год выпуска фильма: 1928

Страна-производитель диска: USA
Издатель (лейбл): Sony Classical
Номер по каталогу: SK 62006

Аудиокодек: FLAC (*.flac)
Тип рипа: tracks+.cue
Битрейт аудио: lossless
Продолжительность: 1:10:42

Источник: what.cd
Наличие сканов в содержимом раздачи: нет

Треклист:
01. Exclamavit (3:07)
02. Victory at Orleans (Letter from Joan of Arc) (5:05)
03. Interrogation (6:45)
04. The Jailers (2:58)
05. Pater Noster (9:06)
06. Torture (5:20)
07. Illness (Letter from Joan of Arc) (4:17)
08. Sacrament (5:10)
09. Abjuration (7:37)
10. Relapse (3:44)
11. Karitas (2:05)
12. Anima (5:30)
13. The Final Walk (3:00)
14. The Burning (3:03)
15. The Fire of the Dove, Epilogue (3:56)
Exact Audio Copy V1.0 beta 1 from 15. November 2010

EAC extraction logfile from 8. January 2011, 18:58

Anonymous 4 & Netherlands Radio Choir / Einhorn: Voices of Light - Richard Einhorn

Used drive : MATSHITADVD-RAM UJ-842 Adapter: 1 ID: 0

Read mode : SecureUtilize accurate stream : YesDefeat audio cache : YesMake use of C2 pointers : No

Read offset correction : 102Overread into Lead-In and Lead-Out : NoFill up missing offset samples with silence : YesDelete leading and trailing silent blocks : NoNull samples used in CRC calculations : YesUsed interface : Native Win32 interface for Win NT & 2000Gap handling : Appended to previous track

Used output format : User Defined EncoderSelected bitrate : 320 kBit/sQuality : HighAdd ID3 tag : NoCommand line compressor : C:\Program Files\Exact Audio Copy\Flac\flac.exeAdditional command line options : -V -8 -T "artist=%a" -T "title=%t" -T "album=%g" -T "date=%y" -T "tracknumber=%n" -T "genre=%m" %s

TOC of the extracted CD

Track | Start | Length | Start sector | End sector --------------------------------------------------------- 1 | 0:00.00 | 3:07.17 | 0 | 14041 2 | 3:07.17 | 5:04.43 | 14042 | 36884 3 | 8:11.60 | 6:44.55 | 36885 | 67239 4 | 14:56.40 | 2:58.35 | 67240 | 80624 5 | 17:55.00 | 9:05.52 | 80625 | 121551 6 | 27:00.52 | 5:20.18 | 121552 | 145569 7 | 32:20.70 | 4:17.35 | 145570 | 164879 8 | 36:38.30 | 5:09.70 | 164880 | 188124 9 | 41:48.25 | 7:36.52 | 188125 | 222376 10 | 49:25.02 | 3:43.53 | 222377 | 239154 11 | 53:08.55 | 2:05.17 | 239155 | 248546 12 | 55:13.72 | 5:29.48 | 248547 | 273269 13 | 60:43.45 | 3:00.02 | 273270 | 286771 14 | 63:43.47 | 3:02.65 | 286772 | 300486 15 | 66:46.37 | 3:56.00 | 300487 | 318186

Track 1

Filename H:\WD Sync Data\My Stuff\Music\Anonymous 4 & Netherlands Radio Choir - 1995 - Einhorn- Voices of Light - Richard Einhorn\01 - Exclamavit.wav

Pre-gap length 0:00:02.00

Peak level 61.5 % Extraction speed 0.8 X Track quality 100.0 % Test CRC B30F639C Copy CRC B30F639C Accurately ripped (confidence 3) [56100B60] Copy OK

Track 2

Filename H:\WD Sync Data\My Stuff\Music\Anonymous 4 & Netherlands Radio Choir - 1995 - Einhorn- Voices of Light - Richard Einhorn\02 - Victory at Orleans (Letter from Joan of Arc).wav

Pre-gap length 0:00:00.16

Peak level 14.2 % Extraction speed 0.9 X Track quality 100.0 % Test CRC 69ABB186 Copy CRC 69ABB186 Accurately ripped (confidence 3) [BC5ED56E] Copy OK

Track 3

Filename H:\WD Sync Data\My Stuff\Music\Anonymous 4 & Netherlands Radio Choir - 1995 - Einhorn- Voices of Light - Richard Einhorn\03 - Interrogation.wav

Pre-gap length 0:00:00.18

Peak level 45.5 % Extraction speed 1.0 X Track quality 100.0 % Test CRC E0470659 Copy CRC E0470659 Accurately ripped (confidence 3) [74524AFA] Copy OK

Track 4

Filename H:\WD Sync Data\My Stuff\Music\Anonymous 4 & Netherlands Radio Choir - 1995 - Einhorn- Voices of Light - Richard Einhorn\04 - The Jailers.wav

Pre-gap length 0:00:00.17

Peak level 17.0 % Extraction speed 0.9 X Track quality 100.0 % Test CRC FFCEDA4D Copy CRC FFCEDA4D Accurately ripped (confidence 3) [7277D4EE] Copy OK

Track 5

Filename H:\WD Sync Data\My Stuff\Music\Anonymous 4 & Netherlands Radio Choir - 1995 - Einhorn- Voices of Light - Richard Einhorn\05 - Pater Noster.wav

Pre-gap length 0:00:00.17

Peak level 43.7 % Extraction speed 1.1 X Track quality 100.0 % Test CRC 2D4F8CA1 Copy CRC 2D4F8CA1 Accurately ripped (confidence 3) [190C7200] Copy OK

Track 6

Filename H:\WD Sync Data\My Stuff\Music\Anonymous 4 & Netherlands Radio Choir - 1995 - Einhorn- Voices of Light - Richard Einhorn\06 - Torture.wav

Pre-gap length 0:00:00.08

Peak level 100.0 % Extraction speed 1.1 X Track quality 100.0 % Test CRC 056E6E0F Copy CRC 056E6E0F Accurately ripped (confidence 3) [D3956F13] Copy OK

Track 7

Filename H:\WD Sync Data\My Stuff\Music\Anonymous 4 & Netherlands Radio Choir - 1995 - Einhorn- Voices of Light - Richard Einhorn\07 - Illness (Letter from Joan of Arc).wav

Peak level 12.9 % Extraction speed 1.1 X Track quality 100.0 % Test CRC 94047BCC Copy CRC 94047BCC Accurately ripped (confidence 3) [33C6458F] Copy OK

Track 8

Filename H:\WD Sync Data\My Stuff\Music\Anonymous 4 & Netherlands Radio Choir - 1995 - Einhorn- Voices of Light - Richard Einhorn\08 - Sacrament.wav

Pre-gap length 0:00:00.34

Peak level 81.3 % Extraction speed 1.1 X Track quality 100.0 % Test CRC B71A352D Copy CRC B71A352D Accurately ripped (confidence 3) [2D698AC4] Copy OK

Track 9

Filename H:\WD Sync Data\My Stuff\Music\Anonymous 4 & Netherlands Radio Choir - 1995 - Einhorn- Voices of Light - Richard Einhorn\09 - Abjuration.wav

Pre-gap length 0:00:01.20

Peak level 46.2 % Extraction speed 1.2 X Track quality 100.0 % Test CRC 0A5FE39E Copy CRC 0A5FE39E Accurately ripped (confidence 3) [2A0B7987] Copy OK

Track 10

Filename H:\WD Sync Data\My Stuff\Music\Anonymous 4 & Netherlands Radio Choir - 1995 - Einhorn- Voices of Light - Richard Einhorn\10 - Relapse.wav

Pre-gap length 0:00:00.06

Peak level 18.4 % Extraction speed 1.3 X Track quality 100.0 % Test CRC C577678F Copy CRC C577678F Accurately ripped (confidence 3) [15ECAB37] Copy OK

Track 11

Filename H:\WD Sync Data\My Stuff\Music\Anonymous 4 & Netherlands Radio Choir - 1995 - Einhorn- Voices of Light - Richard Einhorn\11 - Karitas.wav

Pre-gap length 0:00:00.17

Peak level 11.1 % Extraction speed 1.0 X Track quality 100.0 % Test CRC AA526F5A Copy CRC AA526F5A Accurately ripped (confidence 3) [E3E0B62A] Copy OK

Track 12

Filename H:\WD Sync Data\My Stuff\Music\Anonymous 4 & Netherlands Radio Choir - 1995 - Einhorn- Voices of Light - Richard Einhorn\12 - Anima.wav

Pre-gap length 0:00:00.01

Peak level 97.2 % Extraction speed 1.4 X Track quality 100.0 % Test CRC 1FCE46B0 Copy CRC 1FCE46B0 Accurately ripped (confidence 3) [86870D01] Copy OK

Track 13

Filename H:\WD Sync Data\My Stuff\Music\Anonymous 4 & Netherlands Radio Choir - 1995 - Einhorn- Voices of Light - Richard Einhorn\13 - The Final Walk.wav

Pre-gap length 0:00:00.17

Peak level 17.2 % Extraction speed 1.1 X Track quality 100.0 % Test CRC 1EDDA703 Copy CRC 1EDDA703 Accurately ripped (confidence 2) [A712EC48] Copy OK

Track 14

Filename H:\WD Sync Data\My Stuff\Music\Anonymous 4 & Netherlands Radio Choir - 1995 - Einhorn- Voices of Light - Richard Einhorn\14 - The Burning.wav

Pre-gap length 0:00:00.16

Peak level 93.4 % Extraction speed 1.1 X Track quality 100.0 % Test CRC D0F4F653 Copy CRC D0F4F653 Accurately ripped (confidence 3) [A8837507] Copy OK

Track 15

Filename H:\WD Sync Data\My Stuff\Music\Anonymous 4 & Netherlands Radio Choir - 1995 - Einhorn- Voices of Light - Richard Einhorn\15 - The Fire of the Dove, Epilogue.wav

Pre-gap length 0:00:00.09

Peak level 100.0 % Extraction speed 1.3 X Track quality 100.0 % Test CRC 354154B1 Copy CRC 354154B1 Accurately ripped (confidence 3) [F5948251] Copy OK

All tracks accurately ripped

No errors occurred

End of status report

==== Log checksum D69C6131F4606F138586F505E647F838B49DEF5F8CEC195E10ABF25FA84F1C7A ====
REM GENRE ClassicalREM DATE 1995REM DISCID D410920FREM COMMENT "ExactAudioCopy v1.0b1"PERFORMER "Anonymous 4 & Netherlands Radio Choir"TITLE "Einhorn: Voices of Light - Richard Einhorn"FILE "01 - Exclamavit.wav" WAVE TRACK 01 AUDIO TITLE "Exclamavit" PERFORMER "Anonymous 4 & Netherlands Radio Choir" INDEX 01 00:00:00 TRACK 02 AUDIO TITLE "Victory at Orleans (Letter from Joan of Arc)" PERFORMER "Anonymous 4 & Netherlands Radio Choir" INDEX 00 03:07:05FILE "02 - Victory at Orleans (Letter from Joan of Arc).wav" WAVE INDEX 01 00:00:00 TRACK 03 AUDIO TITLE "Interrogation" PERFORMER "Anonymous 4 & Netherlands Radio Choir" INDEX 00 05:04:29FILE "03 - Interrogation.wav" WAVE INDEX 01 00:00:00 TRACK 04 AUDIO TITLE "The Jailers" PERFORMER "Anonymous 4 & Netherlands Radio Choir" INDEX 00 06:44:42FILE "04 - The Jailers.wav" WAVE INDEX 01 00:00:00 TRACK 05 AUDIO TITLE "Pater Noster" PERFORMER "Anonymous 4 & Netherlands Radio Choir" INDEX 00 02:58:22FILE "05 - Pater Noster.wav" WAVE INDEX 01 00:00:00 TRACK 06 AUDIO TITLE "Torture" PERFORMER "Anonymous 4 & Netherlands Radio Choir" INDEX 00 09:05:46FILE "06 - Torture.wav" WAVE INDEX 01 00:00:00FILE "07 - Illness (Letter from Joan of Arc).wav" WAVE TRACK 07 AUDIO TITLE "Illness (Letter from Joan of Arc)" PERFORMER "Anonymous 4 & Netherlands Radio Choir" INDEX 01 00:00:00 TRACK 08 AUDIO TITLE "Sacrament" PERFORMER "Anonymous 4 & Netherlands Radio Choir" INDEX 00 04:17:09FILE "08 - Sacrament.wav" WAVE INDEX 01 00:00:00 TRACK 09 AUDIO TITLE "Abjuration" PERFORMER "Anonymous 4 & Netherlands Radio Choir" INDEX 00 05:08:55FILE "09 - Abjuration.wav" WAVE INDEX 01 00:00:00 TRACK 10 AUDIO TITLE "Relapse" PERFORMER "Anonymous 4 & Netherlands Radio Choir" INDEX 00 07:36:47FILE "10 - Relapse.wav" WAVE INDEX 01 00:00:00 TRACK 11 AUDIO TITLE "Karitas" PERFORMER "Anonymous 4 & Netherlands Radio Choir" INDEX 00 03:43:40FILE "11 - Karitas.wav" WAVE INDEX 01 00:00:00 TRACK 12 AUDIO TITLE "Anima" PERFORMER "Anonymous 4 & Netherlands Radio Choir" INDEX 00 02:05:16FILE "12 - Anima.wav" WAVE INDEX 01 00:00:00 TRACK 13 AUDIO TITLE "The Final Walk" PERFORMER "Anonymous 4 & Netherlands Radio Choir" INDEX 00 05:29:35FILE "13 - The Final Walk.wav" WAVE INDEX 01 00:00:00 TRACK 14 AUDIO TITLE "The Burning" PERFORMER "Anonymous 4 & Netherlands Radio Choir" INDEX 00 02:59:65FILE "14 - The Burning.wav" WAVE INDEX 01 00:00:00 TRACK 15 AUDIO TITLE "The Fire of the Dove, Epilogue" PERFORMER "Anonymous 4 & Netherlands Radio Choir" INDEX 00 03:02:58FILE "15 - The Fire of the Dove, Epilogue.wav" WAVE INDEX 01 00:00:00
AUDIOCHECKER v2.0 beta (build 457) - by Dester - opdester@freemail.hu~~~~~~~~~~~~~~~~~~~~~~~~~~~~~~~~~~-=== НЕ РЕДАКТИРУЙТЕ ЭТОТ ФАЙЛ! ===-

Путь: ...\Anonymous 4 & Netherlands Radio Choir - 1995 - Einhorn- Voices of Light - Richard Einhorn

01 -=- 01 - Exclamavit.flac -=- CDDA (92%)02 -=- 02 - Victory at Orleans (Letter from Joan of Arc).flac -=- CDDA (94%)03 -=- 03 - Interrogation.flac -=- CDDA (85%)04 -=- 04 - The Jailers.flac -=- CDDA (100%)05 -=- 05 - Pater Noster.flac -=- CDDA (87%)06 -=- 06 - Torture.flac -=- CDDA (100%)07 -=- 07 - Illness (Letter from Joan of Arc).flac -=- CDDA (43%)08 -=- 08 - Sacrament.flac -=- CDDA (100%)09 -=- 09 - Abjuration.flac -=- CDDA (54%)10 -=- 10 - Relapse.flac -=- CDDA (87%)11 -=- 11 - Karitas.flac -=- CDDA (58%)12 -=- 12 - Anima.flac -=- CDDA (99%)13 -=- 13 - The Final Walk.flac -=- MPEG (89%)14 -=- 14 - The Burning.flac -=- CDDA (100%)15 -=- 15 - The Fire of the Dove, Epilogue.flac -=- CDDA (100%)

Сводка 80,67% CDDA

5584484


Трекер:  [ 14-Дек-2013 21:43 ]

  

Скачать .torrent

Размер .torrent файла 21 KB


Размер: 249 MB
Хэш (hash) релиза: a3577d4288d13ac4bee9a7dee9706176a53a745d

bot

Топик был перенесен в форум Саундтреки к фильмам и мультфильмам (lossless)

Перенес Galfimbul

Хотите добавить комментарий к записи скачать торрент Страсти Жанны д`Арк La passion de Jeanne dArc

!Обратная связь