Скачать порно через торрент In`youchuu Etsu: Kairaku Henka Taimaroku Мистические непристойности UnionPeer.org бесплатно онлайн HD качество

Скачать новое порно 2015, 2014 новинки через торрент UnionPeer.org

Порно торрент бесплатно ЮнионПир.орг

Если у вас наблюдаются проблемы со скриншотами, переходом по ссылками, скачиванием торрентов - проблемы в блокировщике рекламы AdBlock. #хорошегоДня!


Статистика раздачи
Размер:  4.33 GB   |    Зарегистрирован:  3 года 10 месяцев   |    .torrent скачан:  190 раз   |   
Раздают:  2  
   
Загрузка...
 
Автор Сообщение

LinGr

avatar LinGr


In`youchuu Etsu: Kairaku Henka Taimaroku / Insect Obscene Mystic Yue
淫妖蟲 悦~怪楽変化退魔録~ / Мистические непристойности

Год производства: 2011 г.
Жанр: Big tits, Anal sex, Oral sex, X-Ray, Mystic, Rape, Demons, Tentacles
Серии: ep. 1-2 of 2
Продолжительность: 2x~30 min
Цензура: Есть

Озвучка: Японская (Оригинальная)

Режиссер: Nishijima Katsuhiko
Автор оригинала: Tinker Bell
Студия: Milky Animation Label, Studio Fantasia

Описание RUS: Однажды, Ямато, Микото и Такеру посещают деревню в горах для прохождения обучения охотников на монстров. Они проходят различные трудные тренировки и наконец достигают своей цели. Но что-то не так с телом Ямато... Постепенно он превращается в монстра... Что случилось с его телом? Кто может остановить это? Чтобы спасти Ямато, Микото и Такеру прилагают все усилия. Какова тайна тела Ямато? Что случится с Микото и Такеру?

Описание ENG: For the final stage of their training as demon exorcists, sisters Mikoto and Takeru visit the village of Ayagami along with Yamato. Lurking within Yamato is a demon, sealed away by Hatsune, the girls' mother. However, to truly seal away this demon requires the ultimate spirit power of the Haramiko. For Mikoto and Takeru, no sacrifice is too great...

Информационные ссылки: AniDB - MAL - World Art - ХентайМаг

Качество видео: 2x Blu-Ray
Формат видео: Blu-Ray Video
Видео кодек: H.264/AVC
Аудио кодек: PCM
Видео: 1920х1080, (16:9), 29,976 кадров/сек, ~7600 Кбит/сек, NTSC
Аудио: JAP, PCM, 2 канала, 1536 Кбит/сек, 48,0 КГц
Меню: Отсутствует (хз.)
Общее
Идентификатор : 0 (0x0)
Полное имя : D:\Hentai\In`youchuu Etsu Kairaku Henka Taimaroku (BDMV)\In`youchuu Etsu Kairaku Henka Taimaroku (BDMV)\In`youchuu Etsu Kairaku Henka Taimaroku-VOL1 (BDMV)\BDMV\STREAM\00000.m2ts
Формат : BDAV
Формат/Информация : Blu-ray Video
Размер файла : 1,86 Гбайт
Продолжительность : 28 м.
Режим общего битрейта : Переменный
Общий поток : 9284 Кбит/сек
Максимальный общий битрейт : 48,0 Мбит/сек

Видео
Идентификатор : 4113 (0x1011)
Идентификатор меню : 1 (0x1)
Формат : AVC
Формат/Информация : Advanced Video Codec
Профиль формата : High@L4.1
Параметр CABAC формата : Да
Параметр ReFrames формата : 4 кадра
Идентификатор кодека : 27
Продолжительность : 28 м.
Вид битрейта : Переменный
Битрейт : 7372 Кбит/сек
Максимальный битрейт : 35,0 Мбит/сек
Ширина : 1920 пикселей
Высота : 1080 пикселей
Соотношение сторон : 16:9
Частота кадров : 23,976 кадра/сек
Стандарт вещания : NTSC
Цветовое пространство : YUV
Субдискретизация насыщенности : 4:2:0
Битовая глубина : 8 бит
Тип развёртки : Прогрессивная
Бит/(Пиксели*Кадры) : 0.148
Размер потока : 1,48 Гбайт (79%)
Основные цвета : BT.709
Характеристики трансфера : BT.709
Коэффициенты матрицы : BT.709

Аудио
Идентификатор : 4352 (0x1100)
Идентификатор меню : 1 (0x1)
Формат : PCM
Параметр Endianness формата : Big
Параметр Sign формата : Signed
Режим смешивания : Blu-ray
Идентификатор кодека : 128
Продолжительность : 28 м.
Вид битрейта : Постоянный
Битрейт : 1536 Кбит/сек
Каналы : 2 канала
Расположение каналов : Front: L R
Частота : 48,0 КГц
Битовая глубина : 16 бит
Размер потока : 315 Мбайт (17%)


Трекер:  [ 01-Дек-2013 20:23 ]

  

Скачать .torrent

Размер .torrent файла 20 KB


Размер: 4.33 GB
Хэш (hash) релиза: 8512f73a86ca84375cd85ec6d8db69acb5e5a27f

Торренты, похожие на In`youchuu Etsu: Kairaku Henka Taimaroku Мистические непристойности скачать торрент

Форум Название Автор Размер S L Добавлен
Хентай, порно и эротические мультфильмы ·· In`youchuu Etsu: Kairaku Henka Taimaroku / Insect Obscene Mystic Yue / Мистические непристойности (Milky Animation Label, Studio Fantasia, Tinker Bell) (ep. 1-2 of 2) [cen] [2011 г., Anal, Demons, Mystic, Oral, Rape, Tentacles, DVD5] [jap] Galfimbul 55580876805.18 GB 0 0 1337847540

11:19

24-Май-12

bot

Топик был перенесен в форум Хентай | С цензурой

Перенес LinGr

Хотите добавить комментарий к записи скачать торрент In`youchuu Etsu: Kairaku Henka Taimaroku Мистические непристойности

!Обратная связь