Скачать через торрент Кружок по страйкболу женской гимназии Стелла Stella Jogakuin Koutouka C3-bu бесплатно Аниме Все серии на русском torrent

Если у вас наблюдаются проблемы со скриншотами, переходом по ссылками, скачиванием торрентов - проблемы в блокировщике рекламы AdBlock. #хорошегоДня!


Статистика раздачи
Размер:  1.09 GB   |    Зарегистрирован:  3 года 9 месяцев   |    .torrent скачан:  9 раз   |   
Раздают:  1  
   
Загрузка...
 
Автор Сообщение

Polarnik

avatar Polarnik



Год выпуска: 2013
Страна: Япония
Жанр: приключения
Продолжительность: 13 эп. по 25 мин.
Выпуск: c 05.07.2013 по 27.09.2013
Перевод:

русские субтитры от Ambiente (полные/вспомогательные)
переводчик: BO3DYX
Режиссер: Кавадзири Масаёси
Студия: GAINAX
Описание:
Тихая и стеснительная Юра Ямато рада оказаться в престижной женской академии Стелла. Где, как не здесь, среди сказочных зданий и аллей, усыпанных лепестками сакуры, расцвести нежному девичьему сердечку? Теперь, словно в романах, ее ждут икэбана и стихи, танцы и ночные чаепития с домашним печеньем, и наверняка старшая подруга, с которой она имела честь поселиться, окажется умной, красивой, изящной… А дальше все будет, как в «Деве Марии»… ой, а почему их общий гардероб весь завален какими-то странными железками и полевым снаряжением?

Вот так-то, новобранец любви и красоты! Мир изменился, и нынешние принцессы встречают судьбу не в хрустальных туфельках, а в очках, защите и с верным приводом в руках. Соседка же по имени Сонора Касима действительно оказалась кумиром всей школы, а еще президентом страйкбольного клуба С3, в который Юра обречена была попасть. Конечно, приятно попить чаю на природе, но перед этим полезно разогнать кровь и нагулять аппетит, от души постреляв друг в друга и воображая себя Рэмбо, Ларой Крофт и Дунканом МакЛаудом. А с воображением у девчат из академии Стелла и их соперниц все в порядке!
© Hollow, World Art
Информационные ссылки: AniDB || World Art || MAL
Качество: BDRip
Энкод: Winter - RG Pantheon
Тип видео: без хардсаба
Формат: mkv
Видео: x264 (Hi10p), 1280x720, ~2500 Kbps, 23.976 fps
Аудио JAP: Vorbis, 48000Hz, ~256 Kbps, 2ch
Аудио RUS 1: AC3, 48000Hz, ~192 Kbps, 2ch (внешними файлами)
Аудио RUS 2: AC3, 48000Hz, ~192 Kbps, 2ch (внешними файлами)
одноголосая (жен.) от Emeri (LE-Production)
одноголосая (муж.) от Ancord (AniDub)
01. Any Volunteers to Enlist!?
02. I Am Charged with Guarding the Lady.
Общее
Уникальный идентификатор : 246698139012022686833799437345694640071 (0xB99855541E28E65082A032F1757367C7)
Полное имя : Z:\Anime\720p\Stella Jogakuin Koutouka C3-bu [BD] [720p]\[Winter] Stella Jogakuin Koutouka C3-bu 01 [BDrip 1280x720 x264 Vorbis].mkv
Формат : Matroska
Версия формата : Version 2
Размер файла : 505 Мбайт
Продолжительность : 24 м.
Режим общего битрейта : Переменный
Общий поток : 2917 Кбит/сек
Дата кодирования : UTC 2013-11-29 17:48:14
Программа кодирования : mkvmerge v2.9.8 (''C''est le bon'') built on Aug 13 2009 12:49:06
Библиотека кодирования : libebml v0.7.7 + libmatroska v0.8.1

Видео
Идентификатор : 1
Формат : AVC
Формат/Информация : Advanced Video Codec
Профиль формата : High 10@L4.1
Параметр CABAC формата : Да
Параметр ReFrames формата : 9 кадров
Идентификатор кодека : V_MPEG4/ISO/AVC
Продолжительность : 24 м.
Битрейт : 2603 Кбит/сек
Ширина : 1280 пикселей
Высота : 720 пикселей
Соотношение сторон : 16:9
Режим частоты кадров : Постоянный
Частота кадров : 23,976 кадра/сек
Цветовое пространство : YUV
Субдискретизация насыщенности : 4:2:0
Битовая глубина : 10 бит
Тип развёртки : Прогрессивная
Бит/(Пиксели*Кадры) : 0.118
Размер потока : 450 Мбайт (89%)
Библиотека кодирования : x264 core 132 r2309 3b1f1f7
Настройки программы : cabac=1 / ref=9 / deblock=1:-2:-2 / analyse=0x3:0x133 / me=umh / subme=9 / psy=1 / psy_rd=0.90:0.00 / mixed_ref=1 / me_range=24 / chroma_me=1 / trellis=2 / 8x8dct=1 / cqm=0 / deadzone=21,11 / fast_pskip=1 / chroma_qp_offset=-2 / threads=6 / lookahead_threads=1 / sliced_threads=0 / nr=0 / decimate=0 / interlaced=0 / bluray_compat=0 / constrained_intra=0 / bframes=8 / b_pyramid=2 / b_adapt=2 / b_bias=0 / direct=1 / weightb=1 / open_gop=0 / weightp=2 / keyint=250 / keyint_min=23 / scenecut=40 / intra_refresh=0 / rc=crf / mbtree=0 / crf=15.7 / qcomp=0.70 / qpmin=9 / qpmax=40 / qpstep=4 / ip_ratio=1.40 / pb_ratio=1.30 / aq=1:0.90
Default : Нет
Forced : Нет

Аудио
Идентификатор : 2
Формат : Vorbis
Параметр Floor формата : 1
Идентификатор кодека : A_VORBIS
Продолжительность : 24 м.
Вид битрейта : Переменный
Битрейт : 256 Кбит/сек
Каналы : 2 канала
Частота : 48,0 КГц
Метод сжатия : С потерями
Размер потока : 44,3 Мбайт (9%)
Библиотека кодирования : libVorbis (Schaufenugget) (20101101 (Schaufenugget))
Язык : Japanese
Default : Да
Forced : Нет




Трекер:  [ 02-Дек-2013 17:42 ]

  

Скачать .torrent

Размер .torrent файла 13 KB


Размер: 1.09 GB
Хэш (hash) релиза: e5e343c3c13eeea3c90b60b884d24f3635b0c8da
Подписка на обновления:

Еще никто не оставлял запись к записи скачать торрент Кружок по страйкболу женской гимназии Стелла Stella Jogakuin Koutouka C3-bu . Будь первым!

!Обратная связь