Скачать через торрент Сказания Симфонии OVA-3 Tales of Symphonia the Animation: The United World бесплатно Аниме Все серии на русском torrent

Если у вас наблюдаются проблемы со скриншотами, переходом по ссылками, скачиванием торрентов - проблемы в блокировщике рекламы AdBlock. #хорошегоДня!


Статистика раздачи
Размер:  3.58 GB   |    Зарегистрирован:  4 года   |    .torrent скачан:  44 раза   |   
Раздают:  1  
   
Загрузка...
 
Автор Сообщение

Polarnik

avatar Polarnik


Сказания Симфонии OVA-3 / Tales of Symphonia the Animation: The United World
Страна: Япония
Год выпуска: 2011-2012
Жанр: приключения, фэнтези
Тип: OVA
Продолжительность: OVA 3 эп ~40 мин
Озвучка:
Любителькая одноголосная OSLIKt
Субтитры:
русские (внешние)
1эп. от Hajime
2эп. от sinechka & Ay_16r
3эп. от Крайс
Студия:
Режиссер: Сотодзаки Харуо
Описание: Коллет удалось спасти, но что ждёт наших героев и этот мир в будущем?
Какие откровения и испытания уготовила им судьба?
Заключительная часть аниме-адаптации игры "Tales of Symphonia" от NAMCO.
World Art
Качество: BDRip
Релиз/Автор рипа: QTS
Совместимость с бытовыми плеерами: Нет
Наличие линковки: Нет
Тип видео: без хардсаба
Формат: MP4
Видео: x264, 1280x720, (16/9), ~2800кбит/с, 23.976fps, 10 bit
Аудио #1 (внешняя) русская - AAC, 2 ch, 192кбит/с, 48000Hz
Аудио #2 (в контейнере) японская - AAC, 2 ch, 280кбит/с, 48000Hz
Аудио #3 (в контейнере) японская - AAC, 2 ch, 230кбит/с, 48000Hz комментарии в 3 серии
* Чтобы смотреть с озвучкой, необходимо из папки Rus sound [OSLIKt] переписать файлы в папку, где находятся видеофайлы. Далее, следует запустить плеер и переключиться на mka-дорожку. Подробное описание здесь
* Чтобы смотреть 10-битное видео (10bit), необходимо, исходя из ваших предпочтений используемого проигрывателя, воспользоваться
этой инструкцией.
* Чтобы смотреть с субтитрами, необходимо из папки Rus subs переписать файлы в папку, где находятся видеофайлы. В большинстве плееров, одноимённые субтитры подключатся автоматически.


Общее
Полное имя : C:\Торренты №2\Tales of Symphonia OVA 3 [BDRip 720p]\[QTS] Tales of Symphonia The Animation - The United World Episode 02.mp4
Формат : MPEG-4
Профиль формата : Base Media
Идентификатор кодека : isom
Размер файла : 736 Мбайт
Продолжительность : 33 м.
Режим общего битрейта : Переменный
Общий поток : 3082 Кбит/сек
Дата кодирования : UTC 2013-11-11 09:42:06
Дата пометки : UTC 2013-11-11 09:42:06

Видео
Идентификатор : 1
Формат : AVC
Формат/Информация : Advanced Video Codec
Профиль формата : High 10@L5.0
Параметр CABAC формата : Да
Параметр ReFrames формата : 10 кадров
Идентификатор кодека : avc1
Идентификатор кодека/Информация : Advanced Video Coding
Продолжительность : 33 м.
Битрейт : 2791 Кбит/сек
Максимальный битрейт : 16,1 Мбит/сек
Ширина : 1280 пикселей
Высота : 720 пикселей
Соотношение сторон : 16:9
Режим частоты кадров : Постоянный
Частота кадров : 23,976 кадра/сек
Цветовое пространство : YUV
Субдискретизация насыщенности : 4:2:0
Битовая глубина : 10 бит
Тип развёртки : Прогрессивная
Бит/(Пиксели*Кадры) : 0.126
Размер потока : 666 Мбайт (91%)
Заголовок : [QTS] Tales of Symphonia The Animation Extended Trilogy BD-BOX 3rd ~The United World episode~ Vol.2
Библиотека кодирования : x264 core 140 r2377+40 929f149 tMod [10-bit@all X86_64]
Настройки программы : cabac=1 / ref=10 / deblock=1:0:0 / analyse=0x3:0x133 / me=umh / subme=11 / psy=1 / fade_compensate=0.00 / psy_rd=1.00:0.00 / mixed_ref=1 / me_range=32 / chroma_me=1 / trellis=2 / 8x8dct=1 / cqm=0 / deadzone=21,11 / fast_pskip=0 / chroma_qp_offset=-2 / threads=9 / lookahead_threads=1 / sliced_threads=0 / nr=0 / decimate=0 / interlaced=0 / bluray_compat=0 / constrained_intra=0 / fgo=0 / bframes=5 / b_pyramid=2 / b_adapt=2 / b_bias=0 / direct=3 / weightb=1 / open_gop=0 / weightp=2 / keyint=240 / keyint_min=24 / scenecut=40 / intra_refresh=0 / rc_lookahead=45 / rc=crf / mbtree=1 / crf=14.0000 / qcomp=0.60 / qpmin=0:0:0 / qpmax=51:51:51 / qpstep=4 / ip_ratio=1.40 / aq=4:1.00 / aq-sensitivity=10.00 / aq-factor=1.00:1.00:1.00 / aq2=0 / aq3=0
Язык : Japanese
Дата кодирования : UTC 2013-11-11 09:42:06
Дата пометки : UTC 2013-11-11 09:42:15
Основные цвета : BT.709
Характеристики трансфера : BT.709
Коэффициенты матрицы : BT.709

Аудио
Идентификатор : 2
Формат : AAC
Формат/Информация : Advanced Audio Codec
Профиль формата : LC
Идентификатор кодека : 40
Продолжительность : 33 м.
Вид битрейта : Переменный
Битрейт : 288 Кбит/сек
Максимальный битрейт : 421 Кбит/сек
Каналы : 2 канала
Расположение каналов : Front: L R
Частота : 48,0 КГц
Метод сжатия : С потерями
Размер потока : 68,6 Мбайт (9%)
Заголовок : Original Japanese Audio 2.0ch
Язык : Japanese
Дата кодирования : UTC 2013-11-09 06:32:02
Дата пометки : UTC 2013-11-11 09:42:15



Трекер:  [ 30-Ноя-2013 17:03 ]

  

Скачать .torrent

Размер .torrent файла 19 KB


Размер: 3.58 GB
Хэш (hash) релиза: 0f0d56542cd3c76de9054bb255577b047f67d11f
Подписка на обновления:

Торренты, похожие на Сказания Симфонии OVA-3 Tales of Symphonia the Animation: The United World скачать торрент

Форум Название Автор Размер S L Добавлен
Аниме | Rips ·· Сказания Симфонии (ОВА-3) / Tales of Symphonia the Animation: The United World (Сотодзаки Харуо) [OVA] [1-3 из 3] [без хардсаба] [RUS(ext),JAP+SUB] [2011 г., приключения, фэнтези, DVDRip] Polarnik 14097985271.31 GB 0 0 1379147687

11:34

14-Сен-13

Еще никто не оставлял запись к записи скачать торрент Сказания Симфонии OVA-3 Tales of Symphonia the Animation: The United World . Будь первым!

!Обратная связь