Скачать порно через торрент Birth in Nature | Роды на лоне природы UnionPeer.org бесплатно онлайн HD качество

Скачать новое порно 2015, 2014 новинки через торрент UnionPeer.org

Порно торрент бесплатно ЮнионПир.орг

Если у вас наблюдаются проблемы со скриншотами, переходом по ссылками, скачиванием торрентов - проблемы в блокировщике рекламы AdBlock. #хорошегоДня!


Статистика раздачи
Размер:  233 MB   |    Зарегистрирован:  3 года 11 месяцев   |    .torrent скачан:  458 раз   |   
Раздают:  1  
   
Загрузка...
 
Автор Сообщение

LinGr

avatar LinGr


Birth in Nature | Роды на лоне природы
Год производства: 2013 г.
Жанр: amateur, birth, nature
Продолжительность: 10 мин.

Описание: Съёмка процесса родов на природе

Доп. информация:
лицам с не уравновешенной психикой просмотр не рекомендуется

Качество видео: CamRip
Формат видео: MPEG
Видео кодек: MPEG2
Аудио кодек: AC3
Видео: 1280x720 пикс, 25,000 кадров/сек, 16:9, 2855 Кбит/сек
Аудио: AAC, 192 Кбит/сек
Общее
Полное имя : C:\Users\pol_64_1113\Desktop\Birth in Nature.mp4
Формат : MPEG-4
Профиль формата : Base Media
Идентификатор кодека : isom
Размер файла : 233 Мбайт
Продолжительность : 10 м.
Режим общего битрейта : Переменный
Общий поток : 3049 Кбит/сек
Дата кодирования : UTC 2013-11-26 13:51:04
Дата пометки : UTC 2013-11-26 13:51:04

Видео
Идентификатор : 1
Формат : AVC
Формат/Информация : Advanced Video Codec
Профиль формата : High@L3.1
Параметр CABAC формата : Да
Параметр ReFrames формата : 1 кадр
Параметр GOP формата : M=1, N=60
Идентификатор кодека : avc1
Идентификатор кодека/Информация : Advanced Video Coding
Продолжительность : 10 м.
Битрейт : 2855 Кбит/сек
Максимальный битрейт : 6465 Кбит/сек
Ширина : 1280 пикселей
Высота : 720 пикселей
Соотношение сторон : 16:9
Режим частоты кадров : Постоянный
Частота кадров : 25,000 кадров/сек
Цветовое пространство : YUV
Субдискретизация насыщенности : 4:2:0
Битовая глубина : 8 бит
Тип развёртки : Прогрессивная
Бит/(Пиксели*Кадры) : 0.124
Размер потока : 218 Мбайт (94%)
Дата пометки : UTC 2013-11-26 13:51:21

Аудио
Идентификатор : 2
Формат : AAC
Формат/Информация : Advanced Audio Codec
Профиль формата : LC
Идентификатор кодека : 40
Продолжительность : 10 м.
Вид битрейта : Переменный
Битрейт : 192 Кбит/сек
Максимальный битрейт : 201 Кбит/сек
Каналы : 2 канала
Расположение каналов : Front: L R
Частота : 44,1 КГц
Метод сжатия : С потерями
Размер потока : 14,7 Мбайт (6%)
Заголовок : IsoMedia File Produced by Google, 5-11-2011
Дата кодирования : UTC 2013-11-12 07:38:24
Дата пометки : UTC 2013-11-26 13:51:21


Трекер:  [ 27-Ноя-2013 18:57 ]

  

Скачать .torrent

Размер .torrent файла 18 KB


Размер: 233 MB
Хэш (hash) релиза: cbe7868b1f7846475463531d57f2f536f6e17371

Торренты, похожие на Birth in Nature | Роды на лоне природы скачать торрент

Форум Название Автор Размер S L Добавлен
Беременные ·· [Pregnant] Birth in Nature | Роды на лоне природы [2013 г., amateur, homemade, birth, nature, outdoor, CamRip] Galfimbul 243993677233 MB 0 0 1401882227

14:43

4-Июн-14

Еще никто не оставлял запись к записи скачать торрент Birth in Nature | Роды на лоне природы . Будь первым!

!Обратная связь