Скачать порно через торрент Miro in the Magic Mirror World -Magical Girls Erotic Ceremony- UnionPeer.org бесплатно онлайн HD качество

Скачать новое порно 2015, 2014 новинки через торрент UnionPeer.org

Порно торрент бесплатно ЮнионПир.орг

Если у вас наблюдаются проблемы со скриншотами, переходом по ссылками, скачиванием торрентов - проблемы в блокировщике рекламы AdBlock. #хорошегоДня!


Статистика раздачи
Размер:  1.55 GB   |    Зарегистрирован:  3 года 10 месяцев   |    .torrent скачан:  644 раза   |   
Раздают:  1  
   
Загрузка...
 
Автор Сообщение

Galfimbul

avatar Galfimbul



Miro in the Magic Mirror World -Magical Girl's Erotic Ceremony-
鏡の国のミロ 魔法少女の恥辱儀式
Дата выхода: 24.11.2013
Жанр: 3DCG, Masturbation, Futanari, Toys, Uniform, Magical Girl, Trap
Продолжительность: 41 минута 18 секунд (41:18)
Цензура: Есть во всех файлах

Студия / издатель:


Язык: Японский
Озвучка: Оригинальная
Перевод: Английские субтитры (хардсаб)

Качество:
Видео: 720p Windows Media Video 9 1280x720 24fps 5000kbps
Аудио: WMA Pro 44100Hz stereo 440kbps
General
Complete name : kagemino_kunino_miro_e.wmv
Format : Windows Media
File size : 1.55 GiB
Duration : 41mn 18s
Overall bit rate mode : Variable
Overall bit rate : 5 381 Kbps
Maximum Overall bit rate : 8 456 Kbps
Encoded date : UTC 2013-11-18 16:26:31.293

Video
ID : 2
Format : VC-1
Format profile : MP@HL
Codec ID : WMV3
Codec ID/Info : Windows Media Video 9
Codec ID/Hint : WMV3
Description of the codec : Windows Media Video 9 - Professional
Duration : 41mn 18s
Bit rate mode : Variable
Bit rate : 5 000 Kbps
Width : 1 280 pixels
Height : 720 pixels
Display aspect ratio : 16:9
Frame rate : 24.000 fps
Color space : YUV
Chroma subsampling : 4:2:0
Bit depth : 8 bits
Scan type : Progressive
Compression mode : Lossy
Bits/(Pixel*Frame) : 0.226
Stream size : 1.44 GiB (93%)
NumberOfFrames : 59483

Audio
ID : 1
Format : WMA
Format profile : Pro
Codec ID : 162
Codec ID/Info : Windows Media Audio
Description of the codec : Windows Media Audio 10 Professional - 440 kbps, 44 kHz, 2 channel 24 bit 2-pass VBR
Duration : 41mn 18s
Bit rate mode : Variable
Bit rate : 366 Kbps
Channel count : 2 channels
Sampling rate : 44.1 KHz
Bit depth : 24 bits
Stream size : 108 MiB (7%)
NumberOfFrames : 5531

Описание:
Miro is the cross-dressing boy who made a forbidden agreement with the magic mirror.
To become a magical girl, the cross-dressing boy trapped by the mirror will descend into shameful pleasure!

Пожалуйста, не уходите с раздачи - помогите поделиться сим творением с другими!

Трекер:  [ 27-Ноя-2013 14:03 ]

  

Скачать .torrent

Размер .torrent файла 16 KB


Размер: 1.55 GB
Хэш (hash) релиза: 1061cd05748320c2e2704bbc6d71c89ccfc43a56

Торренты, похожие на Miro in the Magic Mirror World -Magical Girls Erotic Ceremony- скачать торрент

Форум Название Автор Размер S L Добавлен
Хентай, порно и эротические мультфильмы ·· Miro in the Magic Mirror World -Magical Girl's Erotic Ceremony- (Mimia Cute) [cen] [2013 г., Masturbation, Futanari, Toys, Uniform, Magical Girl, Trap, DLversion] [jap] [720p] Galfimbul 16673599061.55 GB 1 1 1405033421

02:03

11-Июл-14

bot

Топик был перенесен в форум Хентай | С цензурой

Перенес Galfimbul

ScratchUT

Galfimbul писал(а):

Miro is the cross-dressing boy who made a forbidden agreement with the magic mirror.
To become a magical girl, the cross-dressing boy trapped by the mirror will descend into shameful pleasure!
Миро - Переодетый в девушку парень(Трап), который заключает сделку с магическим зеркалом.
Став девушкой, парень попадает в ловушку зеркала, чтобы погрузиться в развратные удовольствия!

P.S - Опять же - Вольный перевод. И спс за хентайку, от этой студии ролики зачетные :3

Хотите добавить комментарий к записи скачать торрент Miro in the Magic Mirror World -Magical Girls Erotic Ceremony-

!Обратная связь