Скачать порно через торрент Princess Lover! Kimi to Isshou no Asa UnionPeer.org бесплатно онлайн HD качество

Скачать новое порно 2015, 2014 новинки через торрент UnionPeer.org

Порно торрент бесплатно ЮнионПир.орг

Если у вас наблюдаются проблемы со скриншотами, переходом по ссылками, скачиванием торрентов - проблемы в блокировщике рекламы AdBlock. #хорошегоДня!


Статистика раздачи
Размер:  3.28 GB   |    Зарегистрирован:  3 года 8 месяцев   |    .torrent скачан:  159 раз   |   
Раздают:  1  
   
Загрузка...
 
Автор Сообщение

LinGr

avatar LinGr



Princess Lover! / Kimi to Isshou no Asa / プリンセスラバー! / Любитель принцесс!

Год производства: 2010 г.
Жанр: Big tits, Oral sex, Titsjob, School, Maids, Princess
Серии: ep. 1-2 of 2
Продолжительность: 2х~28 min
Цензура: Есть

Озвучка: Японская (Оригинальная)

Режиссер: Toyota Manaka
Автор оригинала: Ricotta
Студия: Hoods Entertainment, Ricotta, Public Enemies, L.

Описание RUS: Продолжение сериала Princess Lover!, мы снова увидим уже знакомых героев, но в более интимных ситуациях.

Описание ENG: Sylvie worries about protecting her pride as a knight, but she simply can not refuse Arima whenever he approaches her. With mixed thoughts of shamelessness and desire, Sylvie allows Arima to do whatever he wants with her.

Информационные ссылки: AniDB - World Art - ХентайМаг

Качество видео: 2x DVD5
Формат видео: DVD Video
Видео кодек: MPEG2
Аудио кодек: AC3
Видео: 720х480, (16:9), 29,970 кадров/сек, ~ 7800 Кбит/сек, NTSC
Аудио: JAP, AC-3, 2 канала, 448 Кбит/сек, 48,0 КГц
Общее
Полное имя : J:\VIDEO_TS\VTS_01_1.VOB
Формат : MPEG-PS
Размер файла : 1024 Мбайт
Продолжительность : 16 м.
Режим общего битрейта : Переменный
Общий поток : 8618 Кбит/сек

Видео
Идентификатор : 224 (0xE0)
Формат : MPEG Video
Версия формата : Version 2
Профиль формата : Main@Main
Параметр BVOP формата : Да
Параметр матрицы формата : Выборочная
Параметр GOP формата : Variable
Продолжительность : 16 м.
Вид битрейта : Переменный
Битрейт : 7998 Кбит/сек
Максимальный битрейт : 9800 Кбит/сек
Ширина : 720 пикселей
Высота : 480 пикселей
Соотношение сторон : 16:9
Частота кадров : 29,970 кадров/сек
Стандарт вещания : NTSC
Цветовое пространство : YUV
Субдискретизация насыщенности : 4:2:0
Битовая глубина : 8 бит
Тип развёртки : Чересстрочная
Порядок развёртки : Верхнее поле первое
Метод сжатия : С потерями
Бит/(Пиксели*Кадры) : 0.772
Временной код первого кадра : 01:00:15:00
Оригинал временного кода : Group of pictures header
Размер потока : 950 Мбайт (93%)

Аудио
Идентификатор : 189 (0xBD)-128 (0x80)
Формат : AC-3
Формат/Информация : Audio Coding 3
Расширение режима : CM (complete main)
Параметр Endianness формата : Big
Режим смешивания : DVD-Video
Продолжительность : 16 м.
Вид битрейта : Постоянный
Битрейт : 448 Кбит/сек
Каналы : 2 канала
Расположение каналов : Front: L R
Частота : 48,0 КГц
Битовая глубина : 16 бит
Метод сжатия : С потерями
Размер потока : 53,2 Мбайт (5%)

Меню


Трекер:  [ 27-Ноя-2013 01:01 ]

  

Скачать .torrent

Размер .torrent файла 17 KB


Размер: 3.28 GB
Хэш (hash) релиза: 3935bb559f5b870d8ec27171afaa93d4c5a4a8ba

bot

Топик был перенесен в форум Хентай | С цензурой

Перенес LinGr

Хотите добавить комментарий к записи скачать торрент Princess Lover! Kimi to Isshou no Asa

!Обратная связь