Скачать порно через торрент Aitona - The Female Warrior.Vol1,2 Knight of Flames UnionPeer.org бесплатно онлайн HD качество

Скачать новое порно 2015, 2014 новинки через торрент UnionPeer.org

Порно торрент бесплатно ЮнионПир.орг

Если у вас наблюдаются проблемы со скриншотами, переходом по ссылками, скачиванием торрентов - проблемы в блокировщике рекламы AdBlock. #хорошегоДня!


Статистика раздачи
Размер:  1.08 GB   |    Зарегистрирован:  3 года 10 месяцев   |    .torrent скачан:  251 раз   |   
Раздают:  1  
   
Загрузка...
 
Автор Сообщение

LinGr

avatar LinGr


Aitona - The Female Warrior2 / Knight of Flames / 炎の騎士 アイトナ2 / Аитона - Женщина Воин2
Год производства: 2013 г.
Релиз: 2013/10/25
Жанр: Fantasy, magic , rape, forced ,tentacle
Продолжительность: 54:11
Цензура: Есть во всех файлах
Разработчик: αPLACE | DLSite

Описание: Aitona собрала доброльцев, чтобы одолеть демона который совершает набеги на деревни и насилуэт женщин.

Качество видео: GameRip
Разрешение видео: 720p
Формат видео: MKV
Видео кодек: H.264/AVC
Аудио кодек: MP3
Видео: MPEG4 Video (H264) 1280x720 30fps 1 757 Kbps
Аудио 1: MP3 44100Hz stereo
Format : Matroska
Format version : Version 1
File size : 771 MiB
Duration : 54mn 11s
Overall bit rate : 1 989 Kbps
Encoded date : UTC 2013-11-25 11:07:06
Writing application : AVSMatroskaFile
Writing library : libebml v0.7.7 + libmatroska v0.8.1

Video
ID : 1
Format : AVC
Format/Info : Advanced Video Codec
Format profile : Main@L5.1
Format settings, CABAC : Yes
Format settings, ReFrames : 1 frame
Codec ID : V_MPEG4/ISO/AVC
Duration : 54mn 11s
Bit rate : 1 757 Kbps
Width : 1 280 pixels
Height : 720 pixels
Display aspect ratio : 16:9
Frame rate mode : Constant
Frame rate : 30.000 fps
Color space : YUV
Chroma subsampling : 4:2:0
Bit depth : 8 bits
Scan type : Progressive
Bits/(Pixel*Frame) : 0.064
Stream size : 681 MiB (88%)
Default : Yes
Forced : No

Audio
ID : 2
Format : MPEG Audio
Format version : Version 1
Format profile : Layer 3
Codec ID : A_MPEG/L3
Codec ID/Hint : MP3
Duration : 54mn 11s
Bit rate mode : Constant
Bit rate : 192 Kbps
Channel(s) : 2 channels
Sampling rate : 44.1 KHz
Compression mode : Lossy
Stream size : 74.4 MiB (10%)
Writing library : LAMELAME_MAJOR_VERSI
Default : Yes

Aitona - The Female Warrior / Knight of Flames / 炎の騎士 アイトナ / Аитона - Женщина Воин
Год производства: 2008 г.
Релиз: 2008/08/06
Жанр: Fantasy, Rape
Продолжительность: 20:56
Цензура: Есть во всех файлах
Разработчик: αPLACE | DLSite
Описание
(Tarpa) Мальчик, который сбежал из деревни где правили монстри. Один из монстров, орк, преследует Мальчика, но Aitona,
героиня, бросается в его спасти! Удастся героине разгрометь орка и спасения Tarpa?

Качество видео: GameRip
Разрешение видео: 720p
Формат видео: MKV
Видео кодек: H.264/AVC
Аудио кодек: MP3
Видео: MPEG4 Video (H264) 1280x720 30fps 1 969 Kbps
Аудио 1: MP3 44100Hz stereo
Format : Matroska
Format version : Version 1
File size : 330 MiB
Duration : 20mn 56s
Overall bit rate : 2 205 Kbps
Encoded date : UTC 2013-11-25 12:05:48
Writing application : AVSMatroskaFile
Writing library : libebml v0.7.7 + libmatroska v0.8.1

Video
ID : 1
Format : AVC
Format/Info : Advanced Video Codec
Format profile : Main@L5.1
Format settings, CABAC : Yes
Format settings, ReFrames : 1 frame
Codec ID : V_MPEG4/ISO/AVC
Duration : 20mn 56s
Bit rate : 1 969 Kbps
Width : 1 280 pixels
Height : 720 pixels
Display aspect ratio : 16:9
Frame rate mode : Constant
Frame rate : 30.000 fps
Color space : YUV
Chroma subsampling : 4:2:0
Bit depth : 8 bits
Scan type : Progressive
Bits/(Pixel*Frame) : 0.071
Stream size : 295 MiB (89%)
Default : Yes
Forced : No

Audio
ID : 2
Format : MPEG Audio
Format version : Version 1
Format profile : Layer 3
Codec ID : A_MPEG/L3
Codec ID/Hint : MP3
Duration : 20mn 56s
Bit rate mode : Constant
Bit rate : 192 Kbps
Channel(s) : 2 channels
Sampling rate : 44.1 KHz
Compression mode : Lossy
Stream size : 28.7 MiB (9%)
Writing library : LAMELAME_MAJOR_VERSI
Default : Yes


Трекер:  [ 27-Ноя-2013 01:01 ]

  

Скачать .torrent

Размер .torrent файла 11 KB


Размер: 1.08 GB
Хэш (hash) релиза: bdc04b48576f874d03af37656b99dfdfda4b1b4d

bot

Топик был перенесен в форум Хентай | С цензурой

Перенес LinGr

Хотите добавить комментарий к записи скачать торрент Aitona - The Female Warrior.Vol1,2 Knight of Flames

!Обратная связь