Скачать порно через торрент Гламурная Мики С 12-ым Размером Груди Glamour Micky aka LovelyBoobsXXX On A Webcam UnionPeer.org бесплатно онлайн HD качество

Скачать новое порно 2015, 2014 новинки через торрент UnionPeer.org

Порно торрент бесплатно ЮнионПир.орг

Если у вас наблюдаются проблемы со скриншотами, переходом по ссылками, скачиванием торрентов - проблемы в блокировщике рекламы AdBlock. #хорошегоДня!


Статистика раздачи
Размер:  235 MB   |    Зарегистрирован:  3 года 8 месяцев   |    .torrent скачан:  387 раз   |   
Раздают:  1  
   
Загрузка...
 
Автор Сообщение

LinGr

avatar LinGr



Гламурная Мики aka "LovelyBoobsXXX" С 12-ым Размером Груди Позирует На Вебку
Glamour Micky aka LovelyBoobsXXX On A Webcam

Год производства: 2011 г.
Жанр: Big Tits, Giant Tits, Big Natural tits, Boobs, Solo, Webcam, Teasing
Продолжительность: 00:29:16

Описание: Гламурная киса Мики aka "LovelyBoobsXXX" с фантастическими дойками 12-ого размера позирует на вебку в стильно обставленной комнате, ласкает себя, переписывается с поклонниками и дразнит нас большущими аппетитными налитыми сиськами с ареолами величиной с CD-диск .

Качество видео: SiteRip
Формат видео: AVI
Видео кодек: MPEG2
Аудио кодек: MP3
Format : AVI
Format/Info : Audio Video Interleave
File size : 235 MiB
Duration : 29mn 16s
Overall bit rate : 1 122 Kbps

Video
ID : 0
Format : MPEG-4 Visual
Format settings, BVOP : Yes
Format settings, QPel : No
Format settings, GMC : No warppoints
Format settings, Matrix : Default (H.263)
Muxing mode : Packed bitstream
Codec ID : DX50
Codec ID/Hint : DivX 5
Duration : 29mn 16s
Bit rate : 1 050 Kbps
Width : 640 pixels
Height : 478 pixels
Display aspect ratio : 4:3
Frame rate : 30.000 fps
Resolution : 24 bits
Colorimetry : 4:2:0
Scan type : Progressive
Bits/(Pixel*Frame) : 0.114
Stream size : 220 MiB (94%)
Writing library : DivX 6.8.5 (UTC 2009-08-20)

Audio
ID : 1
Format : MPEG Audio
Format version : Version 2
Format profile : Layer 3
Codec ID : 55
Codec ID/Hint : MP3
Duration : 29mn 16s
Bit rate mode : Constant
Bit rate : 64.0 Kbps
Channel(s) : 1 channel
Sampling rate : 22.05 KHz
Resolution : 16 bits
Stream size : 13.4 MiB (6%)
Alignment : Split accross interleaves
Interleave, duration : 999 ms (29.98 video frames)
Interleave, preload duration : 750 ms


Трекер:  [ 25-Ноя-2013 21:50 ]

  

Скачать .torrent

Размер .torrent файла 19 KB


Размер: 235 MB
Хэш (hash) релиза: 27c02297819d1531f939611d6a53097530d30dbd

Еще никто не оставлял запись к записи скачать торрент Гламурная Мики С 12-ым Размером Груди Glamour Micky aka LovelyBoobsXXX On A Webcam . Будь первым!

!Обратная связь