Скачать порно через торрент Лососни тунца! или без трусов, но в шляпе UnionPeer.org бесплатно онлайн HD качество

Скачать новое порно 2015, 2014 новинки через торрент UnionPeer.org

Порно торрент бесплатно ЮнионПир.орг

Если у вас наблюдаются проблемы со скриншотами, переходом по ссылками, скачиванием торрентов - проблемы в блокировщике рекламы AdBlock. #хорошегоДня!


Статистика раздачи
Размер:  299 MB   |    Зарегистрирован:  3 года 10 месяцев   |    .torrent скачан:  222 раза   |   
Раздают:  1  
   
Загрузка...
 
Автор Сообщение

LinGr

avatar LinGr


Лососни тунца! или без трусов, но в шляпе
Жанр: Babes, Blowjob, Public Nudity, Softcore
Продолжительность: 00:25:33

Описание: Беззастенчивые женщины смело и с увлечением посасывают члены у своих бойфрендов.
Чем то далёкие времена хиппи напоминает, с их стилем свободной непостыдной любви.

Доп. информация:
Оральная любовь под тихий шелест волн прибоя.

Качество видео: CamRip
Формат видео: AVI
Видео кодек: XviD
Аудио кодек: MP3
Видео: Xvid 720x336 25fps 1500Kbps
Аудио: MP3 44100Hz stereo 128kbps
General
Complete name :lososnulatuntsa.avi
Format : AVI
Format/Info : Audio Video Interleave
File size : 299 MiB
Duration : 25mn 33s
Overall bit rate : 1 637 Kbps
Writing application : MEncoder SVN-r30881(20100311-gcc4.3.3)
Writing library : VirtualDub build 32842/release

Video
ID : 0
Format : MPEG-4 Visual
Format profile : Advanced Simple@L5
Format settings, BVOP : 1
Format settings, QPel : No
Format settings, GMC : No warppoints
Format settings, Matrix : Default (H.263)
Muxing mode : Packed bitstream
Codec ID : XVID
Codec ID/Hint : XviD
Duration : 25mn 33s
Bit rate : 1 499 Kbps
Width : 720 pixels
Height : 336 pixels
Display aspect ratio : 2.143
Frame rate : 25.000 fps
Color space : YUV
Chroma subsampling : 4:2:0
Bit depth : 8 bits
Scan type : Progressive
Compression mode : Lossy
Bits/(Pixel*Frame) : 0.248
Stream size : 274 MiB (92%)
Writing library : XviD 1.2.1 (UTC 2008-12-04)

Audio
ID : 1
Format : MPEG Audio
Format version : Version 1
Format profile : Layer 3
Mode : Joint stereo
Codec ID : 55
Codec ID/Hint : MP3
Duration : 25mn 32s
Bit rate mode : Constant
Bit rate : 128 Kbps
Channel count : 2 channels
Sampling rate : 44.1 KHz
Compression mode : Lossy
Stream size : 23.4 MiB (8%)
Alignment : Split accross interleaves
Interleave, duration : 40 ms (1.00 video frame)
Interleave, preload duration : 500 ms


Трекер:  [ 25-Ноя-2013 13:18 ]

  

Скачать .torrent

Размер .torrent файла 12 KB


Размер: 299 MB
Хэш (hash) релиза: ebef72ac1d364031eb35f083ba0440423348d744

Еще никто не оставлял запись к записи скачать торрент Лососни тунца! или без трусов, но в шляпе . Будь первым!

!Обратная связь