Скачать через торрент музыку Конан-варвар Conan The Barbarian бесплатно без регистрации torrent

Если у вас наблюдаются проблемы со скриншотами, переходом по ссылками, скачиванием торрентов - проблемы в блокировщике рекламы AdBlock. #хорошегоДня!


Статистика раздачи
Размер:  1.34 GB   |    Зарегистрирован:  3 года 9 месяцев   |    .torrent скачан:  46 раз   |   
Раздают:  1  
   
Загрузка...
 
Автор Сообщение

Galfimbul

avatar Galfimbul


Конан-варвар / Conan The Barbarian

Жанр: Score
Composed and Conducted by: Basil Poledouris
Год выпуска диска: 2012
Год выпуска фильма: 1982
Страна-производитель диска: USA
Издатель (лейбл): © + ® Universal Music Company/Intrada
Номер по каталогу: MAF 7123
Аудиокодек: FLAC (*.flac) См. также - Conan The Barbarian (20th Anniversary Edition)
Тип рипа: image+.cue
Битрейт аудио: lossless
Продолжительность: 03:07:44
Источник: Оригинальные диски из личной коллекции
Наличие сканов в содержимом раздачи: да
Disc 1 Complete Score (56:52)

01. Prologue/Anvil Of Crom (3:39)
02. Riddle Of Steel/Riders Of Doom (5:40)
03. Gift Of Fury (3:51)
04. Column Of Sadness/Wheel Of Pain (4:10)
05. Pit Fights (2:40)
06. Discipline Of Steel/Freedom Council (1:38)
07. Atlantean Sword (4:01)
08. Warm Welcome (2:06)
09. Wolf Witch (3:10)
10. Theology/Civilization (3:14)
11. Street Of Deviants (0:29)
12. Hopefuls at the Tower of Set (2:22)
13. The Tower Of Set (5:38)
14. The Snake/Infidels (2:01)
15. The Tavern (1:14)
16. Wifeing (Love Theme) (2:11)
17. Indulgence/Mettle (1:15)
18. The Hall of King Osric (1:23)
19. The Leaving/The Search (5:58)

Disc 2: Complete Score (Continued...) (52:04)

01. The Mountain Of Power Procession (3:22)
02. Capture (0:52)
03. Tree Of Woe/Recovery (5:46)
04. Warpaint (1:01)
05. The Kitchen/The Orgy (6:30)
06. The Defilers (5:16)
07. Funeral Pyre (4:32)
08. Battle Of The Mounds Part I (4:52)
09. Battle Of The Mounds Part II (2:16)
10. Battle Of The Mounds Part III (Revised)/Night of Doom (5:36)
11. Head Chop (0:57)
12. Orphans Of Doom/The Awakening (5:33)
13. Conan The King/End Titles (5:28)

Extra Tracks (26:41)

14. Prologue (First Version) (0:46)
15. Anvil Of Crom (First Version) (2:31)
16. The Tower Of Set Part I (First Version) (3:46)
17. Battle Of The Mounds Part II (2:16)
18. Battle Of The Mounds Part III (First Version) (3:03)
19. Orphans Of Doom (Orchestra & Solo Voice) (1:22)
20. Orphans Of Doom (Chorus & Harp)/The Awakening (First Version) (6:45)
21. "Las Cantigas De Santa Maria" (The Tower Of Set Snake theme) (6:05)

Disc 3: Original 1982 Soundtrack Album (52:06)

01. Anvil Of Crom (2:35)
02. Riddle Of Steel/Riders Of Doom (5:38)
03. Gift Of Fury (3:51)
04. Wheel Of Pain (4:10)
05. Atlantean Sword (3:51)
06. Theology/Civilization (3:14)
07. Wifeing (Theme Of Love From "Conan The Barbarian") (2:11)
08. The Search (3:09)
09. The Orgy (4:16)
10. Funeral Pyre (4:30)
11. Battle Of The Mounds (4:54)
12. Orphans Of Doom/The Awakening (5:32)
13. Prologue (W/Narration)/Anvil Of Crom (3:39)
Доп. информация: Специальное, Юбилейное Издание Оригинального саундтрека знаменитого фильма Конан Варвар «Conan The Barbarian» с Арнольдом Шварценеггером.
Великолепная Музыка Бейзила Поледуриса не может оставить равнодушным
Exact Audio Copy V1.0 beta 3 from 29. August 2011

EAC extraction logfile from 12. September 2013, 14:08

Basil Poledouris / Conan The Barbarian (Complete Score)

Used drive : ASUS DRW-24B3LT Adapter: 2 ID: 0

Read mode : Secure
Utilize accurate stream : Yes
Defeat audio cache : Yes
Make use of C2 pointers : No

Read offset correction : 6
Overread into Lead-In and Lead-Out : No
Fill up missing offset samples with silence : Yes
Delete leading and trailing silent blocks : No
Null samples used in CRC calculations : Yes
Used interface : Native Win32 interface for Win NT & 2000

Used output format : Internal WAV Routines
Sample format : 44.100 Hz; 16 Bit; Stereo

TOC of the extracted CD

Track | Start | Length | Start sector | End sector
---------------------------------------------------------
1 | 0:00.00 | 3:40.46 | 0 | 16545
2 | 3:40.46 | 5:39.48 | 16546 | 42018
3 | 9:20.19 | 3:52.74 | 42019 | 59492
4 | 13:13.18 | 4:11.70 | 59493 | 78387
5 | 17:25.13 | 2:41.07 | 78388 | 90469
6 | 20:06.20 | 1:31.71 | 90470 | 97365
7 | 21:38.16 | 4:03.32 | 97366 | 115622
8 | 25:41.48 | 2:05.36 | 115623 | 125033
9 | 27:47.09 | 3:10.41 | 125034 | 139324
10 | 30:57.50 | 3:15.69 | 139325 | 154018
11 | 34:13.44 | 0:29.70 | 154019 | 156263
12 | 34:43.39 | 2:22.44 | 156264 | 166957
13 | 37:06.08 | 5:38.63 | 166958 | 192370
14 | 42:44.71 | 2:01.07 | 192371 | 201452
15 | 44:46.03 | 1:14.00 | 201453 | 207002
16 | 46:00.03 | 2:10.72 | 207003 | 216824
17 | 48:11.00 | 1:16.03 | 216825 | 222527
18 | 49:27.03 | 1:23.60 | 222528 | 228812
19 | 50:50.63 | 6:00.33 | 228813 | 255845

Range status and errors

Selected range

Filename D:\Osieron\Desktop\Test&Copy\Basil Poledouris - Conan The Barbarian (Complete Score).wav

Peak level 97.6 %
Extraction speed 6.3 X
Range quality 99.9 %
Test CRC 7580025B
Copy CRC 7580025B
Copy OK

No errors occurred

AccurateRip summary

Track 1 accurately ripped (confidence 28) [8069A4E4] (AR v2)
Track 2 accurately ripped (confidence 28) [42B440F6] (AR v2)
Track 3 accurately ripped (confidence 28) [C6ADC86B] (AR v2)
Track 4 accurately ripped (confidence 28) [38E0A22E] (AR v2)
Track 5 accurately ripped (confidence 27) [65E80F4C] (AR v2)
Track 6 accurately ripped (confidence 27) [2F6599D6] (AR v2)
Track 7 accurately ripped (confidence 28) [BF5D67E5] (AR v2)
Track 8 accurately ripped (confidence 27) [0AAF4445] (AR v2)
Track 9 accurately ripped (confidence 27) [2F0BC6ED] (AR v2)
Track 10 accurately ripped (confidence 28) [0E2EC285] (AR v2)
Track 11 accurately ripped (confidence 28) [FC42144E] (AR v2)
Track 12 accurately ripped (confidence 28) [40ABA662] (AR v2)
Track 13 accurately ripped (confidence 28) [DC285E88] (AR v2)
Track 14 accurately ripped (confidence 28) [E68D7220] (AR v2)
Track 15 accurately ripped (confidence 28) [FDEF7CD1] (AR v2)
Track 16 accurately ripped (confidence 28) [0DBE70B2] (AR v2)
Track 17 accurately ripped (confidence 28) [16E2736D] (AR v2)
Track 18 accurately ripped (confidence 28) [D2D4F51B] (AR v2)
Track 19 accurately ripped (confidence 28) [C8CA3741] (AR v2)

All tracks accurately ripped

End of status report
Exact Audio Copy V1.0 beta 3 from 29. August 2011

EAC extraction logfile from 12. September 2013, 16:10

Basil Poledouris / Conan The Barbarian Complete Score (Continued...)

Used drive : ASUS DRW-24B3LT Adapter: 2 ID: 0

Read mode : Secure
Utilize accurate stream : Yes
Defeat audio cache : Yes
Make use of C2 pointers : No

Read offset correction : 6
Overread into Lead-In and Lead-Out : No
Fill up missing offset samples with silence : Yes
Delete leading and trailing silent blocks : No
Null samples used in CRC calculations : Yes
Used interface : Native Win32 interface for Win NT & 2000

Used output format : Internal WAV Routines
Sample format : 44.100 Hz; 16 Bit; Stereo

TOC of the extracted CD

Track | Start | Length | Start sector | End sector
---------------------------------------------------------
1 | 0:00.00 | 3:24.57 | 0 | 15356
2 | 3:24.57 | 0:54.34 | 15357 | 19440
3 | 4:19.16 | 5:46.59 | 19441 | 45449
4 | 10:06.00 | 1:01.23 | 45450 | 50047
5 | 11:07.23 | 6:30.07 | 50048 | 79304
6 | 17:37.30 | 5:18.04 | 79305 | 103158
7 | 22:55.34 | 4:33.28 | 103159 | 123661
8 | 27:28.62 | 4:52.25 | 123662 | 145586
9 | 32:21.12 | 2:17.25 | 145587 | 155886
10 | 34:38.37 | 5:36.58 | 155887 | 181144
11 | 40:15.20 | 0:59.05 | 181145 | 185574
12 | 41:14.25 | 5:32.37 | 185575 | 210511
13 | 46:46.62 | 5:12.44 | 210512 | 233955
14 | 51:59.31 | 0:48.38 | 233956 | 237593
15 | 52:47.69 | 2:31.10 | 237594 | 248928
16 | 55:19.04 | 3:46.66 | 248929 | 265944
17 | 59:05.70 | 2:18.03 | 265945 | 276297
18 | 61:23.73 | 3:04.33 | 276298 | 290130
19 | 64:28.31 | 1:24.02 | 290131 | 296432
20 | 65:52.33 | 6:47.37 | 296433 | 326994
21 | 72:39.70 | 6:08.05 | 326995 | 354599

Range status and errors

Selected range

Filename D:\Osieron\Desktop\Test&Copy\Basil Poledouris - Conan The Barbarian Complete Score (Continued...).wav

Suspicious position 1:18:21
Suspicious position 1:18:25
Suspicious position 1:18:27
Suspicious position 1:18:29 - 1:18:31
Suspicious position 1:18:33 - 1:18:47

Peak level 100.0 %
Extraction speed 1.6 X
Range quality 99.6 %
Test CRC E17F3B37
Copy CRC E2AF2F5E
Copy finished

There were errors

AccurateRip summary

Track 1 accurately ripped (confidence 28) [90ED33F1] (AR v2)
Track 2 accurately ripped (confidence 28) [D57AA311] (AR v2)
Track 3 accurately ripped (confidence 28) [E2661884] (AR v2)
Track 4 accurately ripped (confidence 28) [D253BA3D] (AR v2)
Track 5 accurately ripped (confidence 28) [7B97A16A] (AR v2)
Track 6 accurately ripped (confidence 28) [EF12BA87] (AR v2)
Track 7 accurately ripped (confidence 28) [C3C0B37B] (AR v2)
Track 8 accurately ripped (confidence 28) [60778B88] (AR v2)
Track 9 accurately ripped (confidence 28) [4FD65C08] (AR v2)
Track 10 accurately ripped (confidence 28) [31B19E8F] (AR v2)
Track 11 accurately ripped (confidence 27) [832DC2FD] (AR v2)
Track 12 accurately ripped (confidence 28) [5504A6FF] (AR v2)
Track 13 accurately ripped (confidence 28) [CBB48CBC] (AR v2)
Track 14 accurately ripped (confidence 27) [88AECF23] (AR v2)
Track 15 accurately ripped (confidence 27) [C201CF57] (AR v2)
Track 16 accurately ripped (confidence 27) [4340DBE1] (AR v2)
Track 17 accurately ripped (confidence 27) [F8CD061B] (AR v2)
Track 18 accurately ripped (confidence 27) [02312FA4] (AR v2)
Track 19 accurately ripped (confidence 27) [BAF81A9D] (AR v2)
Track 20 accurately ripped (confidence 27) [755DF86F] (AR v2)
Track 21 cannot be verified as accurate (confidence 28) [AEA93DC2], AccurateRip returned [3530A553] (AR v2)

20 track(s) accurately ripped
1 track(s) could not be verified as accurate

Some tracks could not be verified as accurate

End of status report
Exact Audio Copy V1.0 beta 3 from 29. August 2011

EAC extraction logfile from 12. September 2013, 17:53

Basil Poledouris / Conan The Barbarian (Original 1982 Soundtrack Album)

Used drive : ASUS DRW-24B3LT Adapter: 2 ID: 0

Read mode : Secure
Utilize accurate stream : Yes
Defeat audio cache : Yes
Make use of C2 pointers : No

Read offset correction : 6
Overread into Lead-In and Lead-Out : No
Fill up missing offset samples with silence : Yes
Delete leading and trailing silent blocks : No
Null samples used in CRC calculations : Yes
Used interface : Native Win32 interface for Win NT & 2000

Used output format : Internal WAV Routines
Sample format : 44.100 Hz; 16 Bit; Stereo

TOC of the extracted CD

Track | Start | Length | Start sector | End sector
---------------------------------------------------------
1 | 0:00.00 | 2:37.31 | 0 | 11805
2 | 2:37.31 | 5:39.72 | 11806 | 37302
3 | 8:17.28 | 3:53.00 | 37303 | 54777
4 | 12:10.28 | 4:12.19 | 54778 | 73696
5 | 16:22.47 | 3:53.54 | 73697 | 91225
6 | 20:16.26 | 3:16.39 | 91226 | 105964
7 | 23:32.65 | 2:12.37 | 105965 | 115901
8 | 25:45.27 | 3:11.43 | 115902 | 130269
9 | 28:56.70 | 4:17.34 | 130270 | 149578
10 | 33:14.29 | 4:31.64 | 149579 | 169967
11 | 37:46.18 | 4:55.49 | 169968 | 192141
12 | 42:41.67 | 5:39.62 | 192142 | 217628
13 | 48:21.54 | 3:42.48 | 217629 | 234326

Range status and errors

Selected range

Filename D:\Osieron\Desktop\Test&Copy\Basil Poledouris - Conan The Barbarian (Original 1982 Soundtrack Album).wav

Peak level 100.0 %
Extraction speed 3.4 X
Range quality 100.0 %
Test CRC 48D7602A
Copy CRC 48D7602A
Copy OK

No errors occurred

AccurateRip summary

Track 1 accurately ripped (confidence 27) [C2DBF909] (AR v2)
Track 2 accurately ripped (confidence 26) [0D847BBD] (AR v2)
Track 3 accurately ripped (confidence 26) [9482B482] (AR v2)
Track 4 accurately ripped (confidence 26) [69C57684] (AR v2)
Track 5 accurately ripped (confidence 26) [E80BAA1D] (AR v2)
Track 6 accurately ripped (confidence 26) [DD030F2A] (AR v2)
Track 7 accurately ripped (confidence 26) [4AA745B0] (AR v2)
Track 8 accurately ripped (confidence 27) [600883A5] (AR v2)
Track 9 accurately ripped (confidence 26) [58E8A245] (AR v2)
Track 10 accurately ripped (confidence 26) [94BECF94] (AR v2)
Track 11 accurately ripped (confidence 27) [3264101B] (AR v2)
Track 12 accurately ripped (confidence 26) [0B2F5E74] (AR v2)
Track 13 accurately ripped (confidence 27) [74BFE7F4] (AR v2)

All tracks accurately ripped

End of status report
foobar2000 1.2.9 / Замер динамического диапазона (DR) 1.1.1
Дата отчёта: 2013-11-24 00:46:16

--------------------------------------------------------------------------------
Анализ: Basil Poledouris / Conan The Barbarian (Complete Score)
--------------------------------------------------------------------------------

DR Пики RMS Продолжительность трека
--------------------------------------------------------------------------------
DR12 -0.21 дБ -15.07 дБ 3:41 01-Prologue/Anvil Of Crom
DR12 -1.68 дБ -18.14 дБ 5:40 02-Riddle Of Steel/Riders Of Doom
DR13 -4.67 дБ -21.33 дБ 3:53 03-Gift Of Fury
DR11 -2.01 дБ -18.41 дБ 4:12 04-Column Of Sadness/Wheel Of Pain
DR11 -0.21 дБ -14.75 дБ 2:41 05-Pit Fights
DR13 -5.78 дБ -23.62 дБ 1:32 06-Discipline Of Steel/Freedom Council
DR11 -2.61 дБ -19.77 дБ 4:03 07-Atlantean Sword
DR14 -2.50 дБ -20.06 дБ 2:05 08-Warm Welcome
DR13 -3.31 дБ -18.89 дБ 3:11 09- Wolf Witch
DR12 -0.60 дБ -18.13 дБ 3:16 10-Theology/Civilization
DR13 -11.29 дБ -28.30 дБ 0:30 11-Street Of Deviants
DR13 -5.60 дБ -21.97 дБ 2:23 12-Hopefuls at the Tower of Set
DR15 -4.29 дБ -22.33 дБ 5:39 13-The Tower Of Set
DR12 -2.64 дБ -18.76 дБ 2:01 14-The Snake/Infidels
DR16 -4.17 дБ -23.65 дБ 1:14 15-The Tavern
DR10 -7.10 дБ -22.67 дБ 2:11 16-Wifeing (Love Theme)
DR15 -3.95 дБ -23.61 дБ 1:16 17-Indulgence/Mettle
DR11 -12.54 дБ -28.68 дБ 1:24 18-The Hall of King Osric
DR11 -3.02 дБ -19.17 дБ 6:00 19-The Leaving/The Search
--------------------------------------------------------------------------------

Количество треков: 19
Реальные значения DR: DR12

Частота: 44100 гц
Каналов: 2
Бит на сэмпл: 16
Битрейт: 761 кбит/с
Кодек: FLAC
================================================================================

foobar2000 1.2.9 / Замер динамического диапазона (DR) 1.1.1
Дата отчёта: 2013-11-24 00:45:49

--------------------------------------------------------------------------------
Анализ: Basil Poledouris / Conan The Barbarian Complete Score (Continued...)
--------------------------------------------------------------------------------

DR Пики RMS Продолжительность трека
--------------------------------------------------------------------------------
DR11 -2.25 дБ -16.39 дБ 3:25 01-The Mountain Of Power Procession
DR10 -3.28 дБ -20.41 дБ 0:54 02-Capture
DR14 -4.80 дБ -24.19 дБ 5:47 03-Tree Of Woe/Recovery
DR11 -4.61 дБ -18.47 дБ 1:01 04-Warpaint
DR12 -1.85 дБ -16.58 дБ 6:30 05-The Kitchen/The Orgy
DR11 0.00 дБ -15.23 дБ 5:18 06-The Defilers
DR14 -0.14 дБ -20.67 дБ 4:33 07-Funeral Pyre
DR11 -0.01 дБ -15.20 дБ 4:52 08-Battle Of The Mounds (Part I)
DR13 -0.17 дБ -20.09 дБ 2:17 09-Battle Of The Mounds (Part II)
DR12 -1.95 дБ -18.95 дБ 5:37 10-Battle Of The Mounds (Part III)
DR12 -2.01 дБ -22.57 дБ 0:59 11-Head Chop
DR13 -0.21 дБ -18.67 дБ 5:32 12-Orphans Of Doom/The Awakening
DR11 0.00 дБ -14.39 дБ 5:13 13-Conan The King/End Titles
DR11 -5.20 дБ -22.40 дБ 0:49 14-Prologue (First Version)
DR11 0.00 дБ -16.29 дБ 2:31 15-Anvil Of Crom (First Version)
DR15 -5.33 дБ -24.77 дБ 3:47 16-The Tower Of Set Part I (First Version)
DR13 -2.06 дБ -21.04 дБ 2:18 17-Battle Of The Mounds Part II (First Version)
DR14 -2.39 дБ -23.37 дБ 3:04 18-Battle Of The Mounds Part III (First Version)
DR9 -12.99 дБ -26.95 дБ 1:24 19-Orphans Of Doom (Orchestra & Solo Voice)
DR13 -2.39 дБ -23.21 дБ 6:47 20-Orphans Of Doom (Chorus & Harp)/The Awakening (First Version)
DR14 -2.36 дБ -21.31 дБ 6:08 21-''Las Cantigas De Santa Maria'' (The Tower Of Set Snake theme)
--------------------------------------------------------------------------------

Количество треков: 21
Реальные значения DR: DR12

Частота: 44100 гц
Каналов: 2
Бит на сэмпл: 16
Битрейт: 764 кбит/с
Кодек: FLAC
================================================================================

foobar2000 1.2.9 / Замер динамического диапазона (DR) 1.1.1
Дата отчёта: 2013-11-24 00:52:50

--------------------------------------------------------------------------------
Анализ: Basil Poledouris / Conan The Barbarian (Original 1982 Soundtrack Album)
--------------------------------------------------------------------------------

DR Пики RMS Продолжительность трека
--------------------------------------------------------------------------------
DR10 -0.32 дБ -13.16 дБ 2:37 01-Anvil Of Crom
DR11 -0.35 дБ -15.78 дБ 5:40 02-Riddle Of Steel/Riders Of Doom
DR11 -2.21 дБ -18.22 дБ 3:53 03-Gift Of Fury
DR10 -0.46 дБ -15.62 дБ 4:12 04-Wheel Of Pain
DR12 -1.45 дБ -18.66 дБ 3:54 05-Atlantean Sword
DR11 0.00 дБ -16.32 дБ 3:17 06-Theology/Civilization
DR10 -1.39 дБ -16.27 дБ 2:12 07-Wifeing (Theme Of Love From Conan The Barbarian)
DR11 -2.12 дБ -17.25 дБ 3:12 08-The Search
DR12 -0.82 дБ -15.22 дБ 4:17 09-The Orgy [Written by Basil Poledouris & Zoe Poledouris]
DR10 -1.56 дБ -17.38 дБ 4:32 10-Funeral Pyre
DR11 -0.09 дБ -14.72 дБ 4:56 11-Battle Of The Mounds
DR12 -0.71 дБ -17.26 дБ 5:40 12-Orphans Of Doom/The Awakening
DR11 -0.02 дБ -14.68 дБ 3:43 13-Prologue (W/Narration)/Anvil Of Crom [One Last Extra]
--------------------------------------------------------------------------------

Количество треков: 13
Реальные значения DR: DR11

Частота: 44100 гц
Каналов: 2
Бит на сэмпл: 16
Битрейт: 775 кбит/с
Кодек: FLAC
================================================================================
Basil Poledouris'' score to the 1982 Universal film Conan the Barbarian remains the most impressive amongst his body of work. Poledouris delivered an impressive schematic of driving rhythm, charged strings and muscular brass that propelled the movie forward like the hammer of the gods. For almost the first thirty minutes the music appears continuous, the various themes and motifs ebbing and flowing, dovetailing seamlessly. Playing for long stretches against dialogue-free visuals, the score completely creates the sound of Cimmeria—a credible world for Conan to inhabit, the music representing his inner turmoil, confusion, and rage.

For this new, definitive release of Conan The Barbarian, Intrada’s 3-CD set is a box of delights even for those who know this fabulous music inside and out. Recorded in Italy by two separate orchestras and remixed from the original 24-track multi-track masters, it is now presented in a way that would make even Basil proud; it shines with a new clarity, a resonance and breadth of scope that makes the whole experience feel fresh and vibrant. The original soundtrack album and its subsequent reissues from 1/4" masters always had a “pinched” quality to them. And this definitive Intrada set contains a host of alternates and unheard treasures. Just in time for the 30th anniversary of the film’s release, this new collection of everything Basil recorded for the film is an emotional high—pure joy for collectors and cultists everywhere.

In the film, Thulsa Doom (James Earl Jones) leads a charge on Conan’s (Arnold Schwarzenegger) village and the young Conan watches while his father is eaten alive by dogs, and his mother is beheaded. Conan is taken into slavery and harnessed to the Wheel of Pain where he pushes the mill’s grindstone, endlessly building his muscles and anger. Freed under mysterious circumstances, he pursues his thirst for revenge, and in cahoots with Subotai (Gerry Lopez) and Valeria (Sandahl Bergman), he plots the downfall of Thulsa Doom.
At last! Complete soundtrack by Basil Poledouris to John Milius epic with Arnold Schwarzenegger as Conan, James Earl Jones as Thulsa Doom, Sandahl Bergman as Valeria. Legendary music needs little introduction but long journey to 3-CD set warrants spotlight. Thought missing for decades, even by composer, Universal vaults reveal recently discovered 2" 24-track & 1/2" 3-track stereo session masters in mint condition for entire project, right down to rehearsal takes! (Assorted extra tracks on earlier Varese Sarabande release were made from composer''s own incomplete 1/4" two-track copy.) Having complete multi-track session elements allows Intrada to newly mix and master everything, finding cool extras in the process! All of them are here! Poledouris originally scores main title with high trumpets joining horns on primary theme plus dynamic horn counter-melody playing in mid-section. Only one raw take is made before re-writes on podium create familiar final version. Other previously unreleased cues include rich version of "The Awakening" with lengthy never-before-heard woodwind bridge section dropped from final film version plus haunting early versions of "Orphans Of Doom", one scored for orchestra plus solo mezzo-soprano, one scored for chorus with harp alone. Three versions of opening prologue, alternate version of "Battle Of The Mounds Part II" add more fun! Original Poledouris music for snake sequence, savage "Pit Fights" are more highlights. Poledouris didn''t write music for kitchen battle sequence as scene was scored editorially from other cues. For Conan purists, we have recreated entire sequence (including awkward edits) for this segment as well as for closing "End Credits", also created editorially in picture itself. Many of composer''s unique percussion sequences were created through experimentation right at sessions, including size and pitch of tunable drums, volume of tam tams, density of rhythmic figures, so forth. It''s all here! Poledouris was fond of his own 48-minute distillation of highlights from massive score so we have licensed that original 1982 MCA album from UMG as well, newly mastered from original album tapes. Two final extras: opening prologue with Mako narration plus actual mono tape master for film version of snake sequence preferred by director Milius. Fascinating, personalized notes by Nick Redman plus musical coverage by Douglass Fake give listener something to read, exciting graphic design by Joe Sikoryak featuring Schwarzenegger and other cast give listener something to look at. Primal intensity and crisp, vibrant details of original performances are without equal. Basil Poledouris conducts. MAF series 3-disc release!
Ознакомившись, приобретайте, пожалуйста, оригинальную продукцию!!! Если не покупать диски, то совсем скоро нечего будет качать...
Все материалы представлены исключительно для ознакомления. Несанкционированное копирование, распространение и публичная демонстрация с целью извлечение коммерческой выгоды запрещены.

Трекер:  [ 14-Дек-2013 21:44 ]

  

Скачать .torrent

Размер .torrent файла 18 KB


Размер: 1.34 GB
Хэш (hash) релиза: 441f2ad1092fa5c840905b21eebb33f65da77e1f

Торренты, похожие на Конан-варвар Conan The Barbarian скачать торрент

Форум Название Автор Размер S L Добавлен
Саундтреки к фильмам и мультфильмам (lossless) ·· (Score) Конан-варвар / Conan The Barbarian, 30th Anniversary Edition (Basil Poledouris) - 2012, FLAC (tracks+.cue), lossless Galfimbul 11606498471.08 GB 0 0 1370680331

11:32

8-Июн-13

Саундтреки к фильмам и мультфильмам (mp3) ·· (Score) Конан-варвар / Conan The Barbarian (20th Anniversary Edition) (Basil Poledouris) - 2002, MP3, 320 kbps AqvaGen 119990924114 MB 0 0 1292266426

21:53

13-Дек-10

Саундтреки к фильмам и мультфильмам (mp3) ·· (Score) Конан-варвар / Conan the Barbarian [Complete] (by Basil Poledouris) - 2010 (1982), MP3 (tracks), 320 kbps Galfimbul 332572485317 MB 0 0 1292266403

21:53

13-Дек-10

Саундтреки к фильмам и мультфильмам (lossless) ·· (Score) Basil Poledouris - Conan the Barbarian / Конан-Варвар - 1982, APE (image+.cue), lossless Mos 249348118238 MB 0 0 1292270617

23:03

13-Дек-10

Саундтреки к фильмам и мультфильмам (lossless) ·· (Score) Conan The Barbarian [Varese Sarabande Expanded Edition] / Конан-варвар (Basil Poledouris) - 1992 (1982), FLAC (tracks+.cue), lossless Galfimbul 384781378367 MB 0 0 1292268653

22:30

13-Дек-10

bot

Топик был перенесен в форум Саундтреки к фильмам и мультфильмам (lossless)

Перенес Galfimbul

Хотите добавить комментарий к записи скачать торрент Конан-варвар Conan The Barbarian

!Обратная связь