Скачать порно через торрент Super Naughty Maid!,Lets Play with Karin!,Send for Misaki! UnionPeer.org бесплатно онлайн HD качество

Скачать новое порно 2015, 2014 новинки через торрент UnionPeer.org

Порно торрент бесплатно ЮнионПир.орг

Если у вас наблюдаются проблемы со скриншотами, переходом по ссылками, скачиванием торрентов - проблемы в блокировщике рекламы AdBlock. #хорошегоДня!


Статистика раздачи
Размер:  1.36 GB   |    Зарегистрирован:  3 года 8 месяцев   |    .torrent скачан:  1501 раз   |   
Раздают:  1  
   
Загрузка...
 
Автор Сообщение

LinGr

avatar LinGr



Super Naughty Maid! / 超★痴女メイド!
Год производства: 2012 г.
Дата релиза: 2012/12/21
Жанр: Maids, Internal Cumshot, Blowjob, Twin Tail
Продолжительность: 42:19
Цензура: Есть во всех файлах

Язык: Японский
Озвучка: Оригинальная
Студия: KENZsoft | DLLSite
Описание:
Riona является удивительно непристойноий горничной!
Она с удовольствием глотает сперму своего любимого хозяина, и рада в том что хозяин паимеит её как надо
Качество видео: GameRip
Формат видео: WMV
Видео кодек: Windows Media
Аудио кодек: WMA
Видео: Windows Media Video 9 788x592 30fps 2491kbps
Аудио 1: WMA Pro 32000Hz stereo 32kbps
Video
ID : 1
Format : VC-1
Format profile : MP@HL
Codec ID : WMV3
Codec ID/Info : Windows Media Video 9
Codec ID/Hint : WMV3
Description of the codec : Windows Media Video 9
Duration : 42mn 19s
Bit rate mode : Variable
Bit rate : 2 491 Kbps
Width : 788 pixels
Height : 592 pixels
Display aspect ratio : 4:3
Frame rate : 30.000 fps
Bit depth : 8 bits
Scan type : Progressive
Compression mode : Lossy
Bits/(Pixel*Frame) : 0.178
Stream size : 754 MiB (96%)
Language : Latvian

Audio
ID : 2
Format : WMA
Format profile : Pro
Codec ID : 162
Codec ID/Info : Windows Media Audio
Description of the codec : Windows Media Audio 10 Professional - 32 kbps, 32 kHz, 2 channel 16 bit (A/V) 1-pass CBR
Duration : 42mn 19s
Bit rate mode : Constant
Bit rate : 32.0 Kbps
Channel(s) : 2 channels
Sampling rate : 32.0 KHz
Bit depth : 16 bits
Stream size : 9.69 MiB (1%)

Let's Play with Karin! / かりんとあそぼ!
Год производства: 2011 г.
Release Sep/23/2011
Жанр: Incest, Internal Cumshot, Blowjob
Продолжительность: 39:50
Цензура: Есть во всех файлах

Язык: Японский
Озвучка: Оригинальная
Студия: KENZsoft | DLSite
Описание:
Я люблю тебя старший братик! Если это делает тебя
счастливим, то я буду твоей секс-игрушкой!
Качество видео: GameRip
Формат видео: WMV
Видео кодек: Windows Media
Аудио кодек: WMA
Видео: Windows Media Video 9 792x588 30fps 1617kbps
Аудио 1: WMA Pro 32000Hz stereo 32kbps
Video
ID : 1
Format : VC-1
Format profile : MP@HL
Codec ID : WMV3
Codec ID/Info : Windows Media Video 9
Codec ID/Hint : WMV3
Description of the codec : Windows Media Video 9
Duration : 39mn 50s
Bit rate mode : Variable
Bit rate : 1 618 Kbps
Width : 792 pixels
Height : 588 pixels
Display aspect ratio : 4:3
Frame rate : 30.000 fps
Bit depth : 8 bits
Scan type : Progressive
Compression mode : Lossy
Bits/(Pixel*Frame) : 0.116
Stream size : 461 MiB (96%)
Language : Latvian

Audio
ID : 2
Format : WMA
Format profile : Pro
Codec ID : 162
Codec ID/Info : Windows Media Audio
Description of the codec : Windows Media Audio 10 Professional - 32 kbps, 32 kHz, 2 channel 16 bit (A/V) 1-pass CBR
Duration : 39mn 50s
Bit rate mode : Constant
Bit rate : 32.0 Kbps
Channel(s) : 2 channels
Sampling rate : 32.0 KHz
Bit depth : 16 bits
Stream size : 9.12 MiB (2%)

Send for Misaki! / 召しませ みさき!
Год производства: 2010 г.
Release Jun/08/2010
Жанр: Cosplay, Bukkake, Internal Cumshot, Blowjob

Продолжительность: 11:17
Цензура: Есть во всех файлах

Язык: Японский
Озвучка: Оригинальная
Студия: KENZsoft | DLSite

Описание:
Она любит быть центре внимание в окружении мальчиков!
Научим и пакажим ее различные вещами о с-э-х-е.
Качество видео: GameRip
Формат видео: WMV
Видео кодек: Windows Media
Аудио кодек: WMA
Видео: Windows Media Video 9 792x588 30fps 1522kbps
Аудио 1: WMA Pro 32000Hz stereo 32kbps
Video
ID : 1
Format : VC-1
Format profile : MP@HL
Codec ID : WMV3
Codec ID/Info : Windows Media Video 9
Codec ID/Hint : WMV3
Description of the codec : Windows Media Video 9
Duration : 11mn 17s
Bit rate mode : Variable
Bit rate : 1 523 Kbps
Width : 792 pixels
Height : 588 pixels
Display aspect ratio : 4:3
Frame rate : 30.000 fps
Bit depth : 8 bits
Scan type : Progressive
Compression mode : Lossy
Bits/(Pixel*Frame) : 0.109
Stream size : 123 MiB (96%)
Language : Latvian

Audio
ID : 2
Format : WMA
Format profile : Pro
Codec ID : 162
Codec ID/Info : Windows Media Audio
Description of the codec : Windows Media Audio 10 Professional - 32 kbps, 32 kHz, 2 channel 16 bit (A/V) 1-pass CBR
Duration : 11mn 17s
Bit rate mode : Constant
Bit rate : 32.0 Kbps
Channel(s) : 2 channels
Sampling rate : 32.0 KHz
Bit depth : 16 bits
Stream size : 2.58 MiB (2%)
Приятного просмотра! Пожалуйста, поддержите раздачу!
Спасибо за Ваши будущие комментарии!

Трекер:  [ 23-Ноя-2013 00:51 ]

  

Скачать .torrent

Размер .torrent файла 14 KB


Размер: 1.36 GB
Хэш (hash) релиза: 7eccd97881d9e9c8c0968848b50d6023c12a956f

bot

Топик был перенесен в форум Хентай | С цензурой

Перенес LinGr

Хотите добавить комментарий к записи скачать торрент Super Naughty Maid!,Lets Play with Karin!,Send for Misaki!

!Обратная связь