Скачать порно через торрент Работает за еду UnionPeer.org бесплатно онлайн HD качество

Скачать новое порно 2015, 2014 новинки через торрент UnionPeer.org

Порно торрент бесплатно ЮнионПир.орг

Если у вас наблюдаются проблемы со скриншотами, переходом по ссылками, скачиванием торрентов - проблемы в блокировщике рекламы AdBlock. #хорошегоДня!


Статистика раздачи
Размер:  69 MB   |    Зарегистрирован:  3 года 8 месяцев   |    .torrent скачан:  513 раз   |   
Раздают:  1  
   
Загрузка...
 
Автор Сообщение

LinGr

avatar LinGr


Работает за еду
Жанр: Babes, MILF, Interracial
Продолжительность: 00:06:46

Описание:
Жизнь - штука очень сложная и непредсказуемая.
Никогда не знаешь, сколько нужно перецеловать жаб,
пока найдёшь своего единственного принца.
Главное - никогда не сдаваться!


Качество видео: CamRip
Формат видео: AVI
Видео кодек: XviD
Аудио кодек: MP3
Видео: Xvid 856x480 25fps 1287 Kbps
Аудио: MP3 44100Hz stereo 128kbps
General
Complete name :dodidone.avi
Format : AVI
Format/Info : Audio Video Interleave
File size : 69.1 MiB
Duration : 6mn 46s
Overall bit rate : 1 427 Kbps
Writing application : MEncoder SVN-r33883(20110719-gcc4.5.2)
Writing library : MPlayer

Video
ID : 0
Format : MPEG-4 Visual
Format profile : Advanced Simple@L5
Format settings, BVOP : Yes
Format settings, QPel : No
Format settings, GMC : No warppoints
Format settings, Matrix : Default (H.263)
Codec ID : XVID
Codec ID/Hint : XviD
Duration : 6mn 46s
Bit rate : 1 287 Kbps
Width : 856 pixels
Height : 480 pixels
Display aspect ratio : 16:9
Original display aspect ratio : 16:9
Frame rate : 25.000 fps
Color space : YUV
Chroma subsampling : 4:2:0
Bit depth : 8 bits
Scan type : Progressive
Compression mode : Lossy
Bits/(Pixel*Frame) : 0.125
Stream size : 62.3 MiB (90%)
Writing library : XviD 1.2.1 (UTC 2008-12-04)

Audio
ID : 1
Format : MPEG Audio
Format version : Version 1
Format profile : Layer 3
Mode : Joint stereo
Mode extension : MS Stereo
Codec ID : 55
Codec ID/Hint : MP3
Duration : 6mn 45s
Bit rate mode : Constant
Bit rate : 128 Kbps
Channel count : 2 channels
Sampling rate : 44.1 KHz
Compression mode : Lossy
Delay relative to video : 40ms
Stream size : 6.18 MiB (9%)
Alignment : Aligned on interleaves
Interleave, duration : 26 ms (0.65 video frame)
Interleave, preload duration : 522 ms
Writing library : LAME3.98.4


Трекер:  [ 20-Ноя-2013 19:23 ]

  

Скачать .torrent

Размер .torrent файла 11 KB


Размер: 69 MB
Хэш (hash) релиза: 656fa509f53ea5485ce59e343bb7a323ce0554ad

Еще никто не оставлял запись к записи скачать торрент Работает за еду . Будь первым!

!Обратная связь