Скачать через торрент музыку Не сдавайся Restless бесплатно без регистрации torrent

Если у вас наблюдаются проблемы со скриншотами, переходом по ссылками, скачиванием торрентов - проблемы в блокировщике рекламы AdBlock. #хорошегоДня!


Статистика раздачи
Размер:  164 MB   |    Зарегистрирован:  3 года 11 месяцев   |    .torrent скачан:  27 раз   |   
Раздают:  1  
   
Загрузка...
 
Автор Сообщение

Galfimbul

avatar Galfimbul


Не сдавайся / Restless
Жанр: Score
Композитор: Danny Elfman
Год выпуска диска: 2013
Год выпуска фильма: 2011
Производитель диска: USA
Издатель (лейбл): LaLaLand Records
Номер по каталогу: LLLCD 1274
Аудиокодек: FLAC (*.flac)
Тип рипа: tracks+.cue
Битрейт аудио: lossless
Продолжительность: 00:34:25
Источник: собственный рип
Наличие сканов в содержимом раздачи: нет (могу добавить позже)
Доп. информация: лимитированное издание, 2000 единиц
Danny Elfman на трекере: lossless # lossy
01. Titles [0:02:40.73]
02. Battleship [0:01:09.28]
03. Reconciliation [0:01:25.74]
04. Sorry For Your Loss [0:01:54.08]
05. Waterbirds [0:01:42.53]
06. Meet The Parents [0:02:19.56]
07. On The Beach [0:02:09.12]
08. Hiroshima [0:01:06.23]
09. Morning Affair [0:01:32.46]
10. Morgue [0:01:17.41]
11. Crime Scene [0:02:44.65]
12. Death Scene [0:02:05.73]
13. Happy Dead Girl [0:01:10.46]
14. Battleship 2 [0:01:50.08]
15. A Ghost [0:01:00.30]
16. The Letter [0:01:33.24]
17. Parents'' Grave [0:01:49.22]
18. Weepy Donuts [0:03:31.12]
19. Enoch''s Goodbye [0:01:20.50]

Exact Audio Copy V1.0 beta 3 from 29. August 2011

EAC extraction logfile from 15. November 2013, 17:21

Danny Elfman / Restless

Used drive : PLEXTOR CD-R PX-230A Adapter: 0 ID: 0

Read mode : SecureUtilize accurate stream : YesDefeat audio cache : YesMake use of C2 pointers : No

Read offset correction : 738Overread into Lead-In and Lead-Out : NoFill up missing offset samples with silence : YesDelete leading and trailing silent blocks : NoNull samples used in CRC calculations : YesUsed interface : Native Win32 interface for Win NT & 2000Gap handling : Appended to previous track

Used output format : User Defined EncoderSelected bitrate : 1024 kBit/sQuality : HighAdd ID3 tag : NoCommand line compressor : C:\Program Files\Exact Audio Copy\Flac\flac.exeAdditional command line options : -6 -V -T "ARTIST=%artist%" -T "TITLE=%title%" -T "ALBUM=%albumtitle%" -T "DATE=%year%"-T "TRACKNUMBER=%tracknr%" -T "GENRE=%genre%" -T "COMMENT=%comment%" -T "ALBUMARTIST=%albuminterpret%" -T "COMPOSER=%composer%"-T "DISCNUMBER=%cdnumber%" -T "TOTALDISCS=%totalcds%" -T "TOTALTRACKS=%numtracks%" %source% -o %dest%

TOC of the extracted CD

Track | Start | Length | Start sector | End sector --------------------------------------------------------- 1 | 0:00.00 | 2:40.73 | 0 | 12072 2 | 2:40.73 | 1:09.28 | 12073 | 17275 3 | 3:50.26 | 1:25.74 | 17276 | 23724 4 | 5:16.25 | 1:54.08 | 23725 | 32282 5 | 7:10.33 | 1:42.53 | 32283 | 39985 6 | 8:53.11 | 2:19.56 | 39986 | 50466 7 | 11:12.67 | 2:09.12 | 50467 | 60153 8 | 13:22.04 | 1:06.23 | 60154 | 65126 9 | 14:28.27 | 1:32.46 | 65127 | 72072 10 | 16:00.73 | 1:17.41 | 72073 | 77888 11 | 17:18.39 | 2:44.65 | 77889 | 90253 12 | 20:03.29 | 2:05.73 | 90254 | 99701 13 | 22:09.27 | 1:10.46 | 99702 | 104997 14 | 23:19.73 | 1:50.08 | 104998 | 113255 15 | 25:10.06 | 1:00.30 | 113256 | 117785 16 | 26:10.36 | 1:33.24 | 117786 | 124784 17 | 27:43.60 | 1:49.22 | 124785 | 132981 18 | 29:33.07 | 3:31.12 | 132982 | 148818 19 | 33:04.19 | 1:20.50 | 148819 | 154868

Track 1

Filename C:\Music\01 - Titles.wav

Pre-gap length 0:00:02.00

Peak level 83.2 % Extraction speed 3.6 X Track quality 99.9 % Test CRC 1A251574 Copy CRC 1A251574 Track not present in AccurateRip database Copy OK

Track 2

Filename C:\Music\02 - Battleship.wav

Peak level 84.5 % Extraction speed 3.4 X Track quality 99.8 % Test CRC BE75AC79 Copy CRC BE75AC79 Track not present in AccurateRip database Copy OK

Track 3

Filename C:\Music\03 - Reconciliation.wav

Peak level 67.7 % Extraction speed 3.3 X Track quality 99.8 % Test CRC 0798B4A9 Copy CRC 0798B4A9 Track not present in AccurateRip database Copy OK

Track 4

Filename C:\Music\04 - Sorry For Your Loss.wav

Peak level 94.4 % Extraction speed 5.0 X Track quality 100.0 % Test CRC 3214BE08 Copy CRC 3214BE08 Track not present in AccurateRip database Copy OK

Track 5

Filename C:\Music\05 - Waterbirds.wav

Peak level 96.9 % Extraction speed 4.9 X Track quality 100.0 % Test CRC A2F3F66B Copy CRC A2F3F66B Track not present in AccurateRip database Copy OK

Track 6

Filename C:\Music\06 - Meet The Parents.wav

Peak level 86.8 % Extraction speed 4.3 X Track quality 99.9 % Test CRC 5A01BD93 Copy CRC 5A01BD93 Track not present in AccurateRip database Copy OK

Track 7

Filename C:\Music\07 - On The Beach.wav

Peak level 82.1 % Extraction speed 4.0 X Track quality 99.9 % Test CRC E58650AA Copy CRC E58650AA Track not present in AccurateRip database Copy OK

Track 8

Filename C:\Music\08 - Hiroshima.wav

Peak level 91.7 % Extraction speed 4.2 X Track quality 100.0 % Test CRC 4878953A Copy CRC 4878953A Track not present in AccurateRip database Copy OK

Track 9

Filename C:\Music\09 - Morning Affair.wav

Peak level 95.5 % Extraction speed 3.9 X Track quality 99.8 % Test CRC 1C6C0C22 Copy CRC 1C6C0C22 Track not present in AccurateRip database Copy OK

Track 10

Filename C:\Music\10 - Morgue.wav

Peak level 41.0 % Extraction speed 4.5 X Track quality 100.0 % Test CRC 43356693 Copy CRC 43356693 Track not present in AccurateRip database Copy OK

Track 11

Filename C:\Music\11 - Crime Scene.wav

Peak level 94.1 % Extraction speed 4.4 X Track quality 100.0 % Test CRC D9F590A9 Copy CRC D9F590A9 Track not present in AccurateRip database Copy OK

Track 12

Filename C:\Music\12 - Death Scene.wav

Peak level 94.4 % Extraction speed 5.0 X Track quality 100.0 % Test CRC 63234E0E Copy CRC 63234E0E Track not present in AccurateRip database Copy OK

Track 13

Filename C:\Music\13 - Happy Dead Girl.wav

Peak level 38.5 % Extraction speed 4.3 X Track quality 100.0 % Test CRC A2F55E86 Copy CRC A2F55E86 Track not present in AccurateRip database Copy OK

Track 14

Filename C:\Music\14 - Battleship 2.wav

Peak level 84.1 % Extraction speed 4.9 X Track quality 100.0 % Test CRC 5457C3D1 Copy CRC 5457C3D1 Track not present in AccurateRip database Copy OK

Track 15

Filename C:\Music\15 - A Ghost.wav

Peak level 94.4 % Extraction speed 3.2 X Track quality 99.8 % Test CRC C610AF0A Copy CRC C610AF0A Track not present in AccurateRip database Copy OK

Track 16

Filename C:\Music\16 - The Letter.wav

Peak level 54.5 % Extraction speed 3.5 X Track quality 99.8 % Test CRC F51C5E24 Copy CRC F51C5E24 Track not present in AccurateRip database Copy OK

Track 17

Filename C:\Music\17 - Parents'' Grave.wav

Peak level 65.7 % Extraction speed 3.3 X Track quality 100.0 % Test CRC DB993015 Copy CRC DB993015 Track not present in AccurateRip database Copy OK

Track 18

Filename C:\Music\18 - Weepy Donuts.wav

Peak level 84.3 % Extraction speed 4.8 X Track quality 99.9 % Test CRC E49D6D72 Copy CRC E49D6D72 Track not present in AccurateRip database Copy OK

Track 19

Filename C:\Music\19 - Enoch''s Goodbye.wav

Peak level 94.4 % Extraction speed 3.3 X Track quality 99.8 % Test CRC 19F5FBB8 Copy CRC 19F5FBB8 Track not present in AccurateRip database Copy OK

None of the tracks are present in the AccurateRip database

No errors occurred

End of status report

==== Log checksum 2AC13B28C0DBAD7C2E8C8B140D4B11A3F3E82A6D822CB7E6E1CBB09CB877D3C9 ====
REM GENRE SoundtrackREM DATE 2013REM DISCID E2081013REM COMMENT "ExactAudioCopy v1.0b3"PERFORMER "Danny Elfman"TITLE "Restless"FILE "01 - Titles.wav" WAVE TRACK 01 AUDIO TITLE "Titles" PERFORMER "Danny Elfman" INDEX 01 00:00:00FILE "02 - Battleship.wav" WAVE TRACK 02 AUDIO TITLE "Battleship" PERFORMER "Danny Elfman" INDEX 01 00:00:00FILE "03 - Reconciliation.wav" WAVE TRACK 03 AUDIO TITLE "Reconciliation" PERFORMER "Danny Elfman" INDEX 01 00:00:00FILE "04 - Sorry For Your Loss.wav" WAVE TRACK 04 AUDIO TITLE "Sorry For Your Loss" PERFORMER "Danny Elfman" INDEX 01 00:00:00FILE "05 - Waterbirds.wav" WAVE TRACK 05 AUDIO TITLE "Waterbirds" PERFORMER "Danny Elfman" INDEX 01 00:00:00FILE "06 - Meet The Parents.wav" WAVE TRACK 06 AUDIO TITLE "Meet The Parents" PERFORMER "Danny Elfman" INDEX 01 00:00:00FILE "07 - On The Beach.wav" WAVE TRACK 07 AUDIO TITLE "On The Beach" PERFORMER "Danny Elfman" INDEX 01 00:00:00FILE "08 - Hiroshima.wav" WAVE TRACK 08 AUDIO TITLE "Hiroshima" PERFORMER "Danny Elfman" INDEX 01 00:00:00FILE "09 - Morning Affair.wav" WAVE TRACK 09 AUDIO TITLE "Morning Affair" PERFORMER "Danny Elfman" INDEX 01 00:00:00FILE "10 - Morgue.wav" WAVE TRACK 10 AUDIO TITLE "Morgue" PERFORMER "Danny Elfman" INDEX 01 00:00:00FILE "11 - Crime Scene.wav" WAVE TRACK 11 AUDIO TITLE "Crime Scene" PERFORMER "Danny Elfman" INDEX 01 00:00:00FILE "12 - Death Scene.wav" WAVE TRACK 12 AUDIO TITLE "Death Scene" PERFORMER "Danny Elfman" INDEX 01 00:00:00FILE "13 - Happy Dead Girl.wav" WAVE TRACK 13 AUDIO TITLE "Happy Dead Girl" PERFORMER "Danny Elfman" INDEX 01 00:00:00FILE "14 - Battleship 2.wav" WAVE TRACK 14 AUDIO TITLE "Battleship 2" PERFORMER "Danny Elfman" INDEX 01 00:00:00FILE "15 - A Ghost.wav" WAVE TRACK 15 AUDIO TITLE "A Ghost" PERFORMER "Danny Elfman" INDEX 01 00:00:00FILE "16 - The Letter.wav" WAVE TRACK 16 AUDIO TITLE "The Letter" PERFORMER "Danny Elfman" INDEX 01 00:00:00FILE "17 - Parents'' Grave.wav" WAVE TRACK 17 AUDIO TITLE "Parents'' Grave" PERFORMER "Danny Elfman" INDEX 01 00:00:00FILE "18 - Weepy Donuts.wav" WAVE TRACK 18 AUDIO TITLE "Weepy Donuts" PERFORMER "Danny Elfman" INDEX 01 00:00:00FILE "19 - Enoch''s Goodbye.wav" WAVE TRACK 19 AUDIO TITLE "Enoch''s Goodbye" PERFORMER "Danny Elfman" INDEX 01 00:00:00


Трекер:  [ 14-Дек-2013 21:44 ]

  

Скачать .torrent

Размер .torrent файла 8 KB


Размер: 164 MB
Хэш (hash) релиза: 57f8f0e2b3aa8ce3d414844c1a4268b35761e1f8

bot

Топик был перенесен в форум Саундтреки к фильмам и мультфильмам (lossless)

Перенес Galfimbul

Хотите добавить комментарий к записи скачать торрент Не сдавайся Restless

!Обратная связь