Скачать через торрент музыку Сумрачный самурай Tasogare Seibei бесплатно без регистрации torrent

Если у вас наблюдаются проблемы со скриншотами, переходом по ссылками, скачиванием торрентов - проблемы в блокировщике рекламы AdBlock. #хорошегоДня!


Статистика раздачи
Размер:  73 MB   |    Зарегистрирован:  3 года 9 месяцев   |    .torrent скачан:  37 раз   |   
Раздают:  1  
   
Загрузка...
 
Автор Сообщение

Galfimbul

avatar Galfimbul


Сумрачный самурай / Tasogare Seibei / The Twilight Samurai

Жанр: Score
Композитор: Isao Tomita
Год выпуска диска: 2002
Год выпуска фильма: 2002
Страна-производитель диска: Japan
Издатель (лейбл): For Life Music Entertainment
Номер по каталогу: FLCF-3963
Аудиокодек: FLAC (*.flac)
Тип рипа: tracks+.cue
Битрейт аудио: lossless
Продолжительность: 00:14:10
Источник: интернет
Наличие сканов в содержимом раздачи: нет
Треклист:
1. Seibei''s Theme (02:09)
2. Tomoe Playing With The Children (02:10)
3. Moment Of Evening (00:58)
4. Seibei''s Decision! (04:47)
5. Master Samurai, The Fight With Yogo (02:24)
6. The Return of Seibei (03:45)
Exact Audio Copy V1.0 beta 2 from 29. April 2011

EAC extraction logfile from 18. August 2011, 19:33

富田勲 / たそがれ清兵衛

Used drive : PLEXTOR DVDR PX-880SA Adapter: 8 ID: 0

Read mode : SecureUtilize accurate stream : YesDefeat audio cache : YesMake use of C2 pointers : No

Read offset correction : 6Overread into Lead-In and Lead-Out : NoFill up missing offset samples with silence : YesDelete leading and trailing silent blocks : NoNull samples used in CRC calculations : YesUsed interface : Native Win32 interface for Win NT & 2000Gap handling : Appended to previous track

Used output format : User Defined EncoderSelected bitrate : 256 kBit/sQuality : HighAdd ID3 tag : NoCommand line compressor : J:\Program Files\Exact Audio Copy\Flac\flac.exeAdditional command line options : -8 -V -T "ARTIST=%artist%" -T "TITLE=%title%" -T "ALBUM=%albumtitle%" -T "DATE=%year%" -T "TRACKNUMBER=%tracknr%" -T "TOTALTRACKS=%numtracks%" -T "GENRE=%genre%" -T "ALBUMARTIST=%albumartist%" -T "ALBUM ARTIST=%albumartist%

TOC of the extracted CD

Track | Start | Length | Start sector | End sector --------------------------------------------------------- 1 | 0:00.00 | 2:09.55 | 0 | 9729 2 | 2:09.55 | 2:10.70 | 9730 | 19549 3 | 4:20.50 | 0:58.72 | 19550 | 23971 4 | 5:19.47 | 4:47.53 | 23972 | 45549 5 | 10:07.25 | 2:24.17 | 45550 | 56366 6 | 12:31.42 | 3:46.00 | 56367 | 73316

Track 1

Filename G:\wav\01 - 清兵衛のテーマ.wav

Pre-gap length 0:00:02.00

Peak level 99.2 % Extraction speed 1.5 X Track quality 100.0 % Test CRC 2F2C152C Copy CRC 2F2C152C Track not present in AccurateRip database Copy OK

Track 2

Filename G:\wav\02 - 子供たちとあそぶ朋江.wav

Pre-gap length 0:00:00.18

Peak level 65.0 % Extraction speed 1.7 X Track quality 100.0 % Test CRC 52E55695 Copy CRC 52E55695 Track not present in AccurateRip database Copy OK

Track 3

Filename G:\wav\03 - 夕景のひととき.wav

Pre-gap length 0:00:02.18

Peak level 85.3 % Extraction speed 1.4 X Track quality 100.0 % Test CRC 990A9F9C Copy CRC 990A9F9C Track not present in AccurateRip database Copy OK

Track 4

Filename G:\wav\04 - 清兵衛の決断!.wav

Pre-gap length 0:00:01.07

Peak level 95.5 % Extraction speed 2.1 X Track quality 100.0 % Test CRC C8103BA5 Copy CRC C8103BA5 Track not present in AccurateRip database Copy OK

Track 5

Filename G:\wav\05 - 一刀流の剣客、余吾との死闘.wav

Pre-gap length 0:00:01.18

Peak level 99.2 % Extraction speed 2.1 X Track quality 100.0 % Test CRC 70DEE8F7 Copy CRC 70DEE8F7 Track not present in AccurateRip database Copy OK

Track 6

Filename G:\wav\06 - 還ってきた清兵衛そして・・・.wav

Pre-gap length 0:00:00.42

Peak level 99.3 % Extraction speed 2.4 X Track quality 100.0 % Test CRC 078EBFA4 Copy CRC 078EBFA4 Track not present in AccurateRip database Copy OK

None of the tracks are present in the AccurateRip database

No errors occurred

End of status report

==== Log checksum 6C5C329D2267DF4C09AC5F975A85CE48417CAA7EC7205CB6B6319D57A7111852 ====
REM DISCID 3503D106REM COMMENT "ExactAudioCopy v1.0b2"PERFORMER "富田勲"TITLE "たそがれ清兵衛"FILE "01 - 清兵衛のテーマ.wav" WAVE TRACK 01 AUDIO TITLE "清兵衛のテーマ" PERFORMER "富田勲" INDEX 01 00:00:00 TRACK 02 AUDIO TITLE "子供たちとあそぶ朋江" PERFORMER "富田勲" INDEX 00 02:09:37FILE "02 - 子供たちとあそぶ朋江.wav" WAVE INDEX 01 00:00:00 TRACK 03 AUDIO TITLE "夕景のひととき" PERFORMER "富田勲" INDEX 00 02:08:52FILE "03 - 夕景のひととき.wav" WAVE INDEX 01 00:00:00 TRACK 04 AUDIO TITLE "清兵衛の決断!" PERFORMER "富田勲" INDEX 00 00:57:65FILE "04 - 清兵衛の決断!.wav" WAVE INDEX 01 00:00:00 TRACK 05 AUDIO TITLE "一刀流の剣客、余吾との死闘" PERFORMER "富田勲" INDEX 00 04:46:35FILE "05 - 一刀流の剣客、余吾との死闘.wav" WAVE INDEX 01 00:00:00 TRACK 06 AUDIO TITLE "還ってきた清兵衛そして..." PERFORMER "富田勲" INDEX 00 02:23:50FILE "06 - 還ってきた清兵衛そして....wav" WAVE INDEX 01 00:00:00


Трекер:  [ 14-Дек-2013 21:44 ]

  

Скачать .torrent

Размер .torrent файла 12 KB


Размер: 73 MB
Хэш (hash) релиза: d610dbdb022cf84d27ebd73fc7230e6d875ccd8c

bot

Топик был перенесен в форум Саундтреки к фильмам и мультфильмам (lossless)

Перенес Galfimbul

Хотите добавить комментарий к записи скачать торрент Сумрачный самурай Tasogare Seibei

!Обратная связь