Скачать порно через торрент Junjou Shoujo Et Cetera Pure-Hearted Girl Et Cetera UnionPeer.org бесплатно онлайн HD качество

Скачать новое порно 2015, 2014 новинки через торрент UnionPeer.org

Порно торрент бесплатно ЮнионПир.орг

Если у вас наблюдаются проблемы со скриншотами, переходом по ссылками, скачиванием торрентов - проблемы в блокировщике рекламы AdBlock. #хорошегоДня!


Статистика раздачи
Размер:  1.75 GB   |    Зарегистрирован:  3 года 9 месяцев   |    .torrent скачан:  167 раз   |   
Раздают:  1  
   
Загрузка...
 
Автор Сообщение

LinGr

avatar LinGr


Junjou Shoujo Et Cetera / Pure-Hearted Girl Et Cetera / 純情少女エトセトラ / Наивная девушка
Год производства: 2013 г.
Жанр: Big tits, Oral sex, Footjob, Romance, School
Серии: ep. 1 of 2
Продолжительность: 1х~21 min + 4 min трейлеры
Цензура: Есть

Озвучка: Японская (Оригинальная)

Режиссер: Oota Hideta
Автор оригинала: Miyabi
Студия: Pashmina, Studio 1st

Описание RUS: Курамочи Кономи увлекается чтением, рукоделием и кулинарией. На первый взгляд, новая ученица была вполне себе заурядной. Разве что ее большой рост, и внешняя зрелость выделяли девушку из толпы новых одноклассниц. Буквально с первого представления Кономи, ее сосед по партам, Дзёноти Юто, начал искать способ сблизиться с новенькой. И судьба быстренько подкидывает ему нужный шанс. Юто по привычке обедал на крыше здания, и, когда на ней появилась Кономи с бенто в руках, он был несказанно обрадован совпадением их вкусов. Не откладывая насущный вопрос в долгий ящик, Юто предлагает Кономи стать его девушкой. Буквально через несколько дней, новообразовавшаяся парочка перешла на более интимную ступень взаимоотношений. Познавая тела друг друга, старшеклассники начинают набираться опыта в классическом сексе, не забывая о, полюбившимся обоим, непристойностях. Пока однажды, Кономи не замечает Юто в объятиях другой девушки… ©hentaimag.ru

Описание ENG: Kuramochi Kohn interested in reading, needlework and cooking. At first glance, the new student food was just mediocre . Is that her great growth and maturity of the external isolated girl from the crowd of new classmates . Literally from the first submission Kohn , her neighbor''s party , Dzenoti Yuto , began looking for a way to get close to brand new . And the fate quickly throws him a chance to correct . Yuto habitually dined on the roof of the building, and when it came to the bento Kohn in his hands, he was incredibly pleased coincidence of their tastes. Do not delay urgent issue on the back burner , Yuto Cohn offers to be his girlfriend . Within a few days, the newly-formed couple moved to a more intimate level of relationships. Getting to know each other''s bodies , high school students begin to gain experience in a classic sex, not forgetting , to love both of obscenities . Until one day , Kon notices Yuto in the arms of another girl ...

Информационные ссылки: AniDB - MAL - World Art - ХентайМаг

Качество видео: DVD5
Формат видео: DVD Video
Видео кодек: MPEG2
Аудио кодек: AC3
Видео: 720х480, (16:9), 29,970 кадров/сек, ~ 7600 Кбит/сек, NTSC
Аудио: JAP, AC-3, 2 канала, 384 Кбит/сек, 48,0 КГц
Общее
Полное имя : J:\VIDEO_TS\VTS_01_1.VOB
Формат : MPEG-PS
Размер файла : 1024 Мбайт
Продолжительность : 17 м.
Общий поток : 8124 Кбит/сек

Видео
Идентификатор : 224 (0xE0)
Формат : MPEG Video
Версия формата : Version 2
Профиль формата : Main@Main
Параметр BVOP формата : Да
Параметр матрицы формата : Выборочная
Параметр GOP формата : M=3, N=12
Продолжительность : 17 м.
Битрейт : 7600 Кбит/сек
Ширина : 720 пикселей
Высота : 480 пикселей
Соотношение сторон : 16:9
Частота кадров : 23,976 кадра/сек
Стандарт вещания : NTSC
Цветовое пространство : YUV
Субдискретизация насыщенности : 4:2:0
Битовая глубина : 8 бит
Тип развёртки : Прогрессивная
Порядок развёртки : 2:3 Pulldown
Метод сжатия : С потерями
Бит/(Пиксели*Кадры) : 0.917
Временной код первого кадра : 00:00:00:00
Оригинал временного кода : Group of pictures header
Размер потока : 955 Мбайт (93%)

Аудио
Идентификатор : 189 (0xBD)-128 (0x80)
Формат : AC-3
Формат/Информация : Audio Coding 3
Расширение режима : CM (complete main)
Параметр Endianness формата : Big
Режим смешивания : DVD-Video
Продолжительность : 17 м.
Вид битрейта : Постоянный
Битрейт : 384 Кбит/сек
Каналы : 2 канала
Расположение каналов : Front: L R
Частота : 48,0 КГц
Битовая глубина : 16 бит
Метод сжатия : С потерями
Размер потока : 48,4 Мбайт (5%)

Меню


Трекер:  [ 16-Ноя-2013 00:50 ]

  

Скачать .torrent

Размер .torrent файла 18 KB


Размер: 1.75 GB
Хэш (hash) релиза: 657402f6d976d61aad272610ccd465caa1f055c3

Торренты, похожие на Junjou Shoujo Et Cetera Pure-Hearted Girl Et Cetera скачать торрент

Форум Название Автор Размер S L Добавлен
Хентай, порно и эротические мультфильмы ·· Junjou Shoujo Et Cetera / Pure-Hearted Girl Et Cetera / Наивная девушка (Oota Hideta, Pashmina, Studio 1st) (ep. 1-2 of 2) [cen] [2013 г., Big tits, Oral sex, Footjob, Romance, School, Toys, 2x DVD5] [jap] Galfimbul 37754621723.52 GB 1 4 1502918515

00:21

17-Авг-17

bot

Топик был перенесен в форум Хентай | С цензурой

Перенес LinGr

Хотите добавить комментарий к записи скачать торрент Junjou Shoujo Et Cetera Pure-Hearted Girl Et Cetera

!Обратная связь