Скачать порно через торрент Hontou ni Atta Hitozuma Furin Kokuhaku Женская исповедь UnionPeer.org бесплатно онлайн HD качество

Скачать новое порно 2015, 2014 новинки через торрент UnionPeer.org

Порно торрент бесплатно ЮнионПир.орг

Если у вас наблюдаются проблемы со скриншотами, переходом по ссылками, скачиванием торрентов - проблемы в блокировщике рекламы AdBlock. #хорошегоДня!


Статистика раздачи
Размер:  1.55 GB   |    Зарегистрирован:  3 года 9 месяцев   |    .torrent скачан:  164 раза   |   
Раздают:  1  
   
Загрузка...
 
Автор Сообщение

LinGr

avatar LinGr


本当にあった人妻不倫告白 | Hontou ni Atta Hitozuma Furin Kokuhaku
Женская исповедь

Год выпуска: 2013
Страна: Япония
Жанр: big tits, masturbation, netorare, oral sex, romance
Продолжительность: >1 эп. 15 мин.
Субтитры: Отсутствуют
Цензура: Присутствует
Студия: BOOTLEG
Описание:
Based on the erotic manga.
Информационные ссылки: AniDB || MAL || World Art || ХентайМаг
Исходник: DVD-5
Видео: MPEG2 | NTSC | 16x9 | 720x480 | 8000 Kbps
Аудио JAP: AC-3 | 48000Hz | 128 Kbps | 2ch
01. The Case of Touko Motomura
General
Complete name : L:\VIDEO_TS\VTS_01_1.VOB
Format : MPEG-PS
File size : 1 024 MiB
Duration : 1mn 50s
Overall bit rate mode : Variable
Overall bit rate : 77.5 Mbps
Writing library : encoded by TMPGEnc Video Mastering Works 5 Version. 5.3.4.96

Video
ID : 224 (0xE0)
Format : MPEG Video
Format version : Version 2
Format profile : Main@Main
Format settings, BVOP : Yes
Format settings, Matrix : Custom
Format settings, GOP : M=3, N=16
Duration : 1mn 50s
Bit rate mode : Variable
Bit rate : 75.8 Mbps
Maximum bit rate : 8 000 Kbps
Width : 720 pixels
Height : 480 pixels
Display aspect ratio : 16:9
Frame rate : 29.970 fps
Standard : NTSC
Color space : YUV
Chroma subsampling : 4:2:0
Bit depth : 8 bits
Scan type : Interlaced
Scan order : Top Field First
Compression mode : Lossy
Bits/(Pixel*Frame) : 7.318
Stream size : 1 002 MiB (98%)
Writing library : TMPGEnc Video Mastering Works 5 Version. 5.3.4.96
Color primaries : SMPTE 170M
Transfer characteristics : SMPTE 170M
Matrix coefficients : SMPTE 170M

Audio
ID : 189 (0xBD)-128 (0x80)
Format : AC-3
Format/Info : Audio Coding 3
Mode extension : CM (complete main)
Muxing mode : DVD-Video
Duration : 1mn 50s
Bit rate mode : Constant
Bit rate : 128 Kbps
Channel(s) : 2 channels
Channel positions : Front: L R
Sampling rate : 48.0 KHz
Bit depth : 16 bits
Compression mode : Lossy
Stream size : 1.69 MiB (0%)


Трекер:  [ 11-Ноя-2013 08:26 ]

  

Скачать .torrent

Размер .torrent файла 16 KB


Размер: 1.55 GB
Хэш (hash) релиза: dac7d22e11345008af5b79911e0b7fbe7a54d706

bot

Топик был перенесен в форум Хентай | С цензурой

Перенес LinGr

Хотите добавить комментарий к записи скачать торрент Hontou ni Atta Hitozuma Furin Kokuhaku Женская исповедь

!Обратная связь