Скачать порно через торрент Catching Princess,INDIVIDUAL,Tragic! Young Wif UnionPeer.org бесплатно онлайн HD качество

Скачать новое порно 2015, 2014 новинки через торрент UnionPeer.org

Порно торрент бесплатно ЮнионПир.орг

Если у вас наблюдаются проблемы со скриншотами, переходом по ссылками, скачиванием торрентов - проблемы в блокировщике рекламы AdBlock. #хорошегоДня!


Статистика раздачи
Размер:  609 MB   |    Зарегистрирован:  4 года   |    .torrent скачан:  27493 раза   |   
Раздают:  1  
   
Загрузка...
 
Автор Сообщение

LinGr

avatar LinGr


Catching Princess / プリンセスキャッチ
Год производства: 2013 г.
Жанр: Queen/Princess Cosplay, SF Fantasy,Monsters
Продолжительность: 10:23
Цензура: Есть во всех файлах

Язык: Японский
Озвучка: Оригинальная
Студия: AKATA | DLLSite

Описание: Serpentine aliens have their way with the noble princess they abducted from her home planet.

Качество видео: GameRip
Формат видео: WMV
Видео кодек: Windows Media
Аудио кодек: WMA
Видео: Windows Media Video 9 908x604 30fps 4446kbps
Аудио 1: WMA Pro 32000Hz stereo 32kbps
Video
ID : 1
Format : VC-1
Format profile : MP@HL
Codec ID : WMV3
Codec ID/Info : Windows Media Video 9
Codec ID/Hint : WMV3
Description of the codec : Windows Media Video 9
Duration : 10mn 23s
Bit rate mode : Variable
Bit rate : 4 447 Kbps
Width : 908 pixels
Height : 604 pixels
Display aspect ratio : 3:2
Frame rate : 30.000 fps
Bit depth : 8 bits
Scan type : Progressive
Compression mode : Lossy
Bits/(Pixel*Frame) : 0.270
Stream size : 331 MiB (97%)
Language : Latvian

Audio
ID : 2
Format : WMA
Format profile : Pro
Codec ID : 162
Codec ID/Info : Windows Media Audio
Description of the codec : Windows Media Audio 10 Professional - 32 kbps, 32 kHz, 2 channel 16 bit (A/V) 1-pass CBR
Duration : 10mn 23s
Bit rate mode : Constant
Bit rate : 32.0 Kbps
Channel(s) : 2 channels
Sampling rate : 32.0 KHz
Bit depth : 16 bits
Stream size : 2.38 MiB (1%)

INDIVIDUAL
Год производства: 2013 г.
Жанр: Polygon, Anime, SF Horror ,Monsters
Продолжительность: 6:34
Цензура: Есть во всех файлах

Язык: Японский
Озвучка: Оригинальная
Студия: AKATA | DLLSite
Описание: The female pilot of a starship is alien-r*ped.

Качество видео: GameRip
Формат видео: WMV
Видео кодек: Windows Media
Аудио кодек: WMA
Видео: Windows Media Video 9 908x600 30fps 2320kbps
Аудио 1: WMA Pro 32000Hz stereo 32kbps
Video
ID : 1
Format : VC-1
Format profile : MP@HL
Codec ID : WMV3
Codec ID/Info : Windows Media Video 9
Codec ID/Hint : WMV3
Description of the codec : Windows Media Video 9
Duration : 6mn 34s
Bit rate mode : Variable
Bit rate : 2 320 Kbps
Width : 908 pixels
Height : 600 pixels
Display aspect ratio : 3:2
Frame rate : 30.000 fps
Bit depth : 8 bits
Scan type : Progressive
Compression mode : Lossy
Bits/(Pixel*Frame) : 0.142
Stream size : 109 MiB (96%)
Language : Latvian

Audio
ID : 2
Format : WMA
Format profile : Pro
Codec ID : 162
Codec ID/Info : Windows Media Audio
Description of the codec : Windows Media Audio 10 Professional - 32 kbps, 32 kHz, 2 channel 16 bit (A/V) 1-pass CBR
Duration : 6mn 34s
Bit rate mode : Constant
Bit rate : 32.0 Kbps
Channel(s) : 2 channels
Sampling rate : 32.0 KHz
Bit depth : 16 bits
Stream size : 1.51 MiB (1%)

Tragic! Young Wife / 悲劇!若妻
Год производства: 2013 г.
Жанр: Polygon Anime, Married Woman, Rape Golden Shower/Urination

Продолжительность: 9:03
Цензура: Есть во всех файлах

Язык: Японский
Озвучка: Оригинальная
Студия: AKATA | DLLSite

Описание:Two men have their way with a hot young married woman in a clearing at the concrete park.

Качество видео: GameRip
Формат видео: WMV
Видео кодек: Windows Media
Аудио кодек: WMA
Видео: Windows Media Video 9 944x664 30fps 2301kbps
Аудио 1: WMA Pro 32000Hz stereo 32kbps
Video
ID : 1
Format : VC-1
Format profile : MP@HL
Codec ID : WMV3
Codec ID/Info : Windows Media Video 9
Codec ID/Hint : WMV3
Description of the codec : Windows Media Video 9
Duration : 9mn 3s
Bit rate mode : Variable
Bit rate : 2 301 Kbps
Width : 944 pixels
Height : 664 pixels
Display aspect ratio : 1.422
Frame rate : 30.000 fps
Bit depth : 8 bits
Scan type : Progressive
Compression mode : Lossy
Bits/(Pixel*Frame) : 0.122
Stream size : 149 MiB (96%)
Language : Latvian

Audio
ID : 2
Format : WMA
Format profile : Pro
Codec ID : 162
Codec ID/Info : Windows Media Audio
Description of the codec : Windows Media Audio 10 Professional - 32 kbps, 32 kHz, 2 channel 16 bit (A/V) 1-pass CBR
Duration : 9mn 3s
Bit rate mode : Constant
Bit rate : 32.0 Kbps
Channel(s) : 2 channels
Sampling rate : 32.0 KHz
Bit depth : 16 bits
Stream size : 2.07 MiB (1%)

Приятного просмотра! Пожалуйста, поддержите раздачу!
Спасибо за Ваши будующие комментарии!

Трекер:  [ 10-Ноя-2013 20:47 ]

  

Скачать .torrent

Размер .torrent файла 12 KB


Размер: 609 MB
Хэш (hash) релиза: 0be8a80c7b2ffc65ae6fc8405adcccee5df0edcf

Еще никто не оставлял запись к записи скачать торрент Catching Princess,INDIVIDUAL,Tragic! Young Wif . Будь первым!

!Обратная связь