Скачать порно через торрент Niece and uncle and Takashi UnionPeer.org бесплатно онлайн HD качество

Скачать новое порно 2015, 2014 новинки через торрент UnionPeer.org

Порно торрент бесплатно ЮнионПир.орг

Если у вас наблюдаются проблемы со скриншотами, переходом по ссылками, скачиванием торрентов - проблемы в блокировщике рекламы AdBlock. #хорошегоДня!


Статистика раздачи
Размер:  744 MB   |    Зарегистрирован:  3 года 9 месяцев   |    .torrent скачан:  892 раза   |   
Раздают:  2  
   
Загрузка...
 
Автор Сообщение

LinGr

avatar LinGr


Niece and uncle and Takashi / 叔父貴と姪と
Год производства: 2013 г.
Жанр: Clothing girl, father incest, Cum Inside
Продолжительность: 26:44
Цензура: Есть во всех файлах

Язык: Японский
Озвучка: Оригинальная
Студия: | Almond Collective || DLLSite |


Описание:
During homecoming after a long time, restart and chance niece, a grown.
The sneaking out with two people during the memorial service, and your exposition the growth condition.
"To Mom It''s ... secret?"
In Buddhist altar room remains are invited to cheeky niece



Качество видео: GameRip
Формат видео: WMV
Видео кодек: Windows Media
Аудио кодек: WMA
Видео: Windows Media Video 9 1272x712 30fps 3768kbps
Аудио 1: WMA Pro 32000Hz stereo 32kbps

Video
ID : 1
Format : VC-1
Format profile : MP@HL
Codec ID : WMV3
Codec ID/Info : Windows Media Video 9
Codec ID/Hint : WMV3
Description of the codec : Windows Media Video 9
Duration : 26mn 44s
Bit rate mode : Variable
Bit rate : 3 769 Kbps
Width : 1 272 pixels
Height : 712 pixels
Display aspect ratio : 16:9
Frame rate : 30.000 fps
Bit depth : 8 bits
Scan type : Progressive
Compression mode : Lossy
Bits/(Pixel*Frame) : 0.139
Stream size : 721 MiB (97%)
Language : Latvian

Audio
ID : 2
Format : WMA
Format profile : Pro
Codec ID : 162
Codec ID/Info : Windows Media Audio
Description of the codec : Windows Media Audio 10 Professional - 32 kbps, 32 kHz, 2 channel 16 bit (A/V) 1-pass CBR
Duration : 26mn 44s
Bit rate mode : Constant
Bit rate : 32.0 Kbps
Channel(s) : 2 channels
Sampling rate : 32.0 KHz
Bit depth : 16 bits
Stream size : 6.12 MiB (1%)


Трекер:  [ 08-Ноя-2013 16:38 ]

  

Скачать .torrent

Размер .torrent файла 15 KB


Размер: 744 MB
Хэш (hash) релиза: 119ed660d039d4f3cd81dcb091dd75b64390fba2

bot

Топик был перенесен в форум Хентай | С цензурой

Перенес LinGr

Хотите добавить комментарий к записи скачать торрент Niece and uncle and Takashi

!Обратная связь