Скачать через торрент музыку Пираньи 2: Нерест Piranha II: The Spawning бесплатно без регистрации torrent

Если у вас наблюдаются проблемы со скриншотами, переходом по ссылками, скачиванием торрентов - проблемы в блокировщике рекламы AdBlock. #хорошегоДня!


Статистика раздачи
Размер:  273 MB   |    Зарегистрирован:  3 года 9 месяцев   |    .torrent скачан:  32 раза   |   
Раздают:  1  
   
Загрузка...
 
Автор Сообщение

Galfimbul

avatar Galfimbul


Пираньи 2: Нерест | Piranha II: The Spawning
Expanded edition


Жанр: Score
Композитор: Stelvio Cipriani
Год выпуска диска: 2003
Год выпуска фильма: 1981
Страна-производитель диска: Italy
Издатель (лейбл): Digitmovies
Номер по каталогу: CDDM005
Аудиокодек: FLAC (*.flac)
Тип рипа: tracks+.cue
Битрейт аудио: lossless
Продолжительность: 00:41:29
Источник: собственный рип
Наличие сканов в содержимом раздачи: да
Треклист:
1. Prelude (02:47)
2. Profondo Sinfonico (Main Titles) (03:35)
3. Theme From Piranha II (Single Version) (02:33)
Alternate version previously unreleased
4. Club Elysium (03:08)
5. The Wreck (03:47)
6. Profundo (02:33)
7. Escape To Paradise (03:56)
8. Theme From Paranha II (04:19)
9. Fun At Elysium (03:48)
10. 6:30 A.M. Explosion (02:58)
11. The Spawning (01:37)
12. Underwater Symphony (02:44)
13. The Deep (End Titles) (03:44)
Exact Audio Copy V1.0 beta 3 from 29. August 2011

EAC extraction logfile from 7. November 2013, 13:08

Stelvio Cipriani / Piranha II

Used drive : PLEXTOR DVDR PX-L890SA Adapter: 0 ID: 1

Read mode : SecureUtilize accurate stream : YesDefeat audio cache : YesMake use of C2 pointers : No

Read offset correction : 6Overread into Lead-In and Lead-Out : NoFill up missing offset samples with silence : YesDelete leading and trailing silent blocks : NoNull samples used in CRC calculations : YesUsed interface : Native Win32 interface for Win NT & 2000Gap handling : Appended to previous track

Used output format : User Defined EncoderSelected bitrate : 768 kBit/sQuality : HighAdd ID3 tag : NoCommand line compressor : C:\Program Files\Exact Audio Copy\FLAC\FLAC.EXEAdditional command line options : -V -8 -T "Genre=%genre%" -T "Artist=%artist%" -T "Title=%title%" -T "Album=%albumtitle%" -T "Date=%year%" -T "Tracknumber=%tracknr%" -T "Comment=%comment%" %source%

TOC of the extracted CD

Track | Start | Length | Start sector | End sector --------------------------------------------------------- 1 | 0:00.00 | 2:49.11 | 0 | 12685 2 | 2:49.11 | 3:37.67 | 12686 | 29027 3 | 6:27.03 | 2:25.65 | 29028 | 39967 4 | 8:52.68 | 3:10.21 | 39968 | 54238 5 | 12:03.14 | 3:49.25 | 54239 | 71438 6 | 15:52.39 | 2:35.10 | 71439 | 83073 7 | 18:27.49 | 3:58.58 | 83074 | 100981 8 | 22:26.32 | 4:21.68 | 100982 | 120624 9 | 26:48.25 | 3:50.62 | 120625 | 137936 10 | 30:39.12 | 3:00.59 | 137937 | 151495 11 | 33:39.71 | 1:39.53 | 151496 | 158973 12 | 35:19.49 | 2:46.13 | 158974 | 171436 13 | 38:05.62 | 3:44.44 | 171437 | 188280

Track 1

Filename F:\torrent\Piranha II_Stelvio Cipriani\score\01 - Prelude.wav

Pre-gap length 0:00:02.00

Peak level 100.0 % Extraction speed 4.5 X Track quality 100.0 % Test CRC DEA0FAF1 Copy CRC DEA0FAF1 Accurately ripped (confidence 1) [EF1CB9E5] (AR v2) Copy OK

Track 2

Filename F:\torrent\Piranha II_Stelvio Cipriani\score\02 - Profondo Sinfonico (Main Titles).wav

Pre-gap length 0:00:02.01

Peak level 93.7 % Extraction speed 5.1 X Track quality 100.0 % Test CRC C0586238 Copy CRC C0586238 Accurately ripped (confidence 1) [880D1AAD] (AR v2) Copy OK

Track 3

Filename F:\torrent\Piranha II_Stelvio Cipriani\score\03 - Theme from Piranha [single version].wav

Pre-gap length 0:00:02.01

Peak level 94.1 % Extraction speed 5.2 X Track quality 100.0 % Test CRC DC46A3AD Copy CRC DC46A3AD Accurately ripped (confidence 1) [93C3864B] (AR v2) Copy OK

Track 4

Filename F:\torrent\Piranha II_Stelvio Cipriani\score\04 - Club Elysium.wav

Pre-gap length 0:00:02.01

Peak level 75.6 % Extraction speed 5.7 X Track quality 100.0 % Test CRC 1053FB65 Copy CRC 1053FB65 Accurately ripped (confidence 1) [CD244B87] (AR v2) Copy OK

Track 5

Filename F:\torrent\Piranha II_Stelvio Cipriani\score\05 - The Wreck.wav

Pre-gap length 0:00:02.01

Peak level 100.0 % Extraction speed 6.2 X Track quality 100.0 % Test CRC FCA21936 Copy CRC FCA21936 Accurately ripped (confidence 1) [3CCE010E] (AR v2) Copy OK

Track 6

Filename F:\torrent\Piranha II_Stelvio Cipriani\score\06 - Profondo.wav

Pre-gap length 0:00:02.01

Peak level 74.7 % Extraction speed 6.1 X Track quality 100.0 % Test CRC 04992AAA Copy CRC 04992AAA Accurately ripped (confidence 1) [3BE06561] (AR v2) Copy OK

Track 7

Filename F:\torrent\Piranha II_Stelvio Cipriani\score\07 - Escape to Paradise.wav

Pre-gap length 0:00:02.01

Peak level 90.2 % Extraction speed 6.9 X Track quality 100.0 % Test CRC EACF519C Copy CRC EACF519C Accurately ripped (confidence 1) [19445FA9] (AR v2) Copy OK

Track 8

Filename F:\torrent\Piranha II_Stelvio Cipriani\score\08 - Theme from Piranha II.wav

Pre-gap length 0:00:02.01

Peak level 85.8 % Extraction speed 6.6 X Track quality 99.9 % Test CRC 58773DB5 Copy CRC 58773DB5 Accurately ripped (confidence 1) [2AF19635] (AR v2) Copy OK

Track 9

Filename F:\torrent\Piranha II_Stelvio Cipriani\score\09 - Fun at Elysium.wav

Pre-gap length 0:00:02.01

Peak level 63.1 % Extraction speed 7.5 X Track quality 100.0 % Test CRC 2997338F Copy CRC 2997338F Accurately ripped (confidence 1) [1B1B09F0] (AR v2) Copy OK

Track 10

Filename F:\torrent\Piranha II_Stelvio Cipriani\score\10 - 6-30 A.M. Explosion.wav

Pre-gap length 0:00:02.01

Peak level 100.0 % Extraction speed 7.5 X Track quality 100.0 % Test CRC 225A6931 Copy CRC 225A6931 Accurately ripped (confidence 1) [1D213AB8] (AR v2) Copy OK

Track 11

Filename F:\torrent\Piranha II_Stelvio Cipriani\score\11 - The Spawning.wav

Pre-gap length 0:00:02.01

Peak level 87.3 % Extraction speed 6.8 X Track quality 100.0 % Test CRC 990E8617 Copy CRC 990E8617 Accurately ripped (confidence 1) [1C1B544A] (AR v2) Copy OK

Track 12

Filename F:\torrent\Piranha II_Stelvio Cipriani\score\12 - Underwater Symphony.wav

Pre-gap length 0:00:02.01

Peak level 94.1 % Extraction speed 7.8 X Track quality 100.0 % Test CRC 47AABEC0 Copy CRC 47AABEC0 Accurately ripped (confidence 1) [3F787633] (AR v2) Copy OK

Track 13

Filename F:\torrent\Piranha II_Stelvio Cipriani\score\13 - The Deep (End Titles).wav

Pre-gap length 0:00:02.01

Peak level 82.2 % Extraction speed 8.3 X Track quality 100.0 % Test CRC D1B2697A Copy CRC D1B2697A Accurately ripped (confidence 1) [FC59AA42] (AR v2) Copy OK

All tracks accurately ripped

No errors occurred

End of status report

==== Log checksum 5AAC0C889F0D5BD44F21BD25739BCB1A157CA2A7A53E57261B027735B2667362 ====
REM GENRE SoundtrackREM DATE 1981REM DISCID 9A09CE0DREM COMMENT "ExactAudioCopy v1.0b3"PERFORMER "Stelvio Cipriani"TITLE "Piranha II"FILE "01 - Prelude.wav" WAVE TRACK 01 AUDIO TITLE "Prelude" PERFORMER "Stelvio Cipriani" FLAGS DCP INDEX 01 00:00:00 TRACK 02 AUDIO TITLE "Profondo Sinfonico (Main Titles)" PERFORMER "Stelvio Cipriani" FLAGS DCP INDEX 00 02:47:10FILE "02 - Profondo Sinfonico (Main Titles).wav" WAVE INDEX 01 00:00:00 TRACK 03 AUDIO TITLE "Theme from Piranha [single version]" PERFORMER "Stelvio Cipriani" FLAGS DCP INDEX 00 03:35:66FILE "03 - Theme from Piranha [single version].wav" WAVE INDEX 01 00:00:00 TRACK 04 AUDIO TITLE "Club Elysium" PERFORMER "Stelvio Cipriani" FLAGS DCP INDEX 00 02:23:64FILE "04 - Club Elysium.wav" WAVE INDEX 01 00:00:00 TRACK 05 AUDIO TITLE "The Wreck" PERFORMER "Stelvio Cipriani" FLAGS DCP INDEX 00 03:08:20FILE "05 - The Wreck.wav" WAVE INDEX 01 00:00:00 TRACK 06 AUDIO TITLE "Profondo" PERFORMER "Stelvio Cipriani" FLAGS DCP INDEX 00 03:47:24FILE "06 - Profondo.wav" WAVE INDEX 01 00:00:00 TRACK 07 AUDIO TITLE "Escape to Paradise" PERFORMER "Stelvio Cipriani" FLAGS DCP INDEX 00 02:33:09FILE "07 - Escape to Paradise.wav" WAVE INDEX 01 00:00:00 TRACK 08 AUDIO TITLE "Theme from Piranha II" PERFORMER "Stelvio Cipriani" FLAGS DCP INDEX 00 03:56:57FILE "08 - Theme from Piranha II.wav" WAVE INDEX 01 00:00:00 TRACK 09 AUDIO TITLE "Fun at Elysium" PERFORMER "Stelvio Cipriani" FLAGS DCP INDEX 00 04:19:67FILE "09 - Fun at Elysium.wav" WAVE INDEX 01 00:00:00 TRACK 10 AUDIO TITLE "6:30 A.M. Explosion" PERFORMER "Stelvio Cipriani" FLAGS DCP INDEX 00 03:48:61FILE "10 - 6-30 A.M. Explosion.wav" WAVE INDEX 01 00:00:00 TRACK 11 AUDIO TITLE "The Spawning" PERFORMER "Stelvio Cipriani" FLAGS DCP INDEX 00 02:58:58FILE "11 - The Spawning.wav" WAVE INDEX 01 00:00:00 TRACK 12 AUDIO TITLE "Underwater Symphony" PERFORMER "Stelvio Cipriani" FLAGS DCP INDEX 00 01:37:52FILE "12 - Underwater Symphony.wav" WAVE INDEX 01 00:00:00 TRACK 13 AUDIO TITLE "The Deep (End Titles)" PERFORMER "Stelvio Cipriani" FLAGS DCP INDEX 00 02:44:12FILE "13 - The Deep (End Titles).wav" WAVE INDEX 01 00:00:00
AUDIOCHECKER v2.0 beta (build 457) - by Dester - opdester@freemail.hu~~~~~~~~~~~~~~~~~~~~~~~~~~~~~~~~~~-=== DO NOT EDIT THIS FILE! ===-

Путь: ...\score

01 -=- 01 - Prelude.flac -=- CDDA (100%)02 -=- 02 - Profondo Sinfonico (Main Titles).flac -=- CDDA (100%)03 -=- 03 - Theme from Piranha [single version].flac -=- CDDA (100%)04 -=- 04 - Club Elysium.flac -=- CDDA (100%)05 -=- 05 - The Wreck.flac -=- CDDA (100%)06 -=- 06 - Profondo.flac -=- CDDA (100%)07 -=- 07 - Escape to Paradise.flac -=- CDDA (100%)08 -=- 08 - Theme from Piranha II.flac -=- CDDA (99%)09 -=- 09 - Fun at Elysium.flac -=- CDDA (100%)10 -=- 10 - 6-30 A.M. Explosion.flac -=- CDDA (100%)11 -=- 11 - The Spawning.flac -=- CDDA (100%)12 -=- 12 - Underwater Symphony.flac -=- CDDA (100%)13 -=- 13 - The Deep (End Titles).flac -=- CDDA (99%)

Сводка 99,85% CDDA

76743268


Трекер:  [ 14-Дек-2013 21:44 ]

  

Скачать .torrent

Размер .torrent файла 12 KB


Размер: 273 MB
Хэш (hash) релиза: d478857739e55c8962aa751336f0aaae027ea050

bot

Топик был перенесен в форум Саундтреки к фильмам и мультфильмам (lossless)

Перенес Galfimbul

Хотите добавить комментарий к записи скачать торрент Пираньи 2: Нерест Piranha II: The Spawning

!Обратная связь